<?xml version="1.0" standalone="no"?>
<!DOCTYPE svg PUBLIC "-//W3C//DTD SVG 1.1//EN" "http://www.w3.org/Graphics/SVG/1.1/DTD/svg11.dtd" >
<svg xmlns="http://www.w3.org/2000/svg" xmlns:xlink="http://www.w3.org/1999/xlink" version="1.1">
<metadata></metadata>
<defs>
<font id="ivar_text_hydrobold_italic" horiz-adv-x="1187" >
<font-face units-per-em="2048" ascent="1536" descent="-512" />
<missing-glyph horiz-adv-x="460" />
<glyph unicode="&#xfb02;" horiz-adv-x="1316" d="M-371 -303q31 55 65 77.5t77 22.5q35 0 56 -18.5t42 -52.5q23 -39 36 -55.5t36 -16.5q41 0 69.5 73.5t69.5 274.5l176 879h-145l24 104l150 43l10 49q31 156 120 256.5t203.5 146.5t225.5 46q168 0 286 -58l220 48h18l-299 -1287q-8 -41 -8 -49q0 -37 35 -37 q47 0 125 117l57 -43q-82 -141 -163 -193.5t-175 -52.5q-92 0 -140 52.5t-48 148.5q0 39 14 111l233 995q-25 61 -66.5 101t-96.5 40q-74 0 -128.5 -70.5t-89.5 -238.5l-18 -86h229l-59 -143h-201l-176 -842q-51 -250 -173 -365.5t-306 -115.5q-102 0 -180 40t-105 99z" />
<glyph horiz-adv-x="0" />
<glyph horiz-adv-x="682" />
<glyph unicode=" "  horiz-adv-x="460" />
<glyph unicode="&#x09;" horiz-adv-x="460" />
<glyph unicode="&#xa0;" horiz-adv-x="460" />
<glyph unicode="!" horiz-adv-x="692" d="M90 164q0 76 54.5 130t131.5 54q78 0 134.5 -54t56.5 -130t-56.5 -130t-134.5 -54q-75 0 -130.5 54t-55.5 130zM272 481l39 725q6 119 58.5 188.5t156.5 69.5q78 0 126 -45t48 -106q0 -45 -19 -103.5t-60 -158.5l-236 -570h-113z" />
<glyph unicode="&#x22;" horiz-adv-x="897" d="M266 823v340q0 106 10 156q12 59 55.5 95t100.5 36q61 0 94 -35t33 -88q0 -45 -14.5 -83t-44.5 -105l-150 -316h-84zM694 823v340q0 106 10 156q12 59 55.5 95t100.5 36q61 0 94 -35t33 -88q0 -45 -14.5 -83t-44.5 -105l-150 -316h-84z" />
<glyph unicode="#" d="M31 459l24 106h244l139 303h-217l25 107h241l213 459h134l-213 -459h276l213 459h133l-213 -459h219l-24 -107h-244l-139 -303h217l-25 -106h-241l-213 -459h-134l213 459h-276l-213 -459h-133l213 459h-219zM432 565h277l139 303h-277z" />
<glyph unicode="$" d="M49 102l109 416h94q-2 -158 50 -267.5t157 -144.5l114 496l-79 62q-121 92 -177.5 175t-56.5 183q0 131 70.5 232.5t185.5 155.5t246 54h12l33 146h115l-37 -156q162 -25 311 -92l-92 -363h-94q-4 121 -43 203t-113 117l-100 -430l65 -51q141 -109 199.5 -197t58.5 -188 q0 -145 -70.5 -255t-192.5 -169.5t-271 -59.5h-2l-41 -180h-115l43 188q-106 14 -192 46t-187 79zM541 1157q0 -53 28.5 -97t87.5 -95l88 376h-4q-86 0 -143 -53t-57 -131zM569 90q104 2 163 61.5t59 155.5q0 66 -31 116t-90 101z" />
<glyph unicode="%" horiz-adv-x="1861" d="M219 1065q0 115 58.5 205t152.5 139t199 49q84 0 157.5 -42t118.5 -113.5t45 -157.5q0 -113 -59.5 -203t-153.5 -139t-198 -49q-84 0 -158 42t-118 112.5t-44 156.5zM248 0l1276 1434h184l-1276 -1434h-184zM442 1049q0 -98 29 -153.5t82 -55.5q47 0 87 50t63.5 126 t23.5 151q0 96 -25.5 150.5t-78.5 54.5q-49 0 -90 -49t-66 -124t-25 -150zM1006 287q0 115 58 205t152.5 139t198.5 49q84 0 158 -42t119 -113.5t45 -157.5q0 -113 -59.5 -203t-153.5 -139.5t-199 -49.5q-84 0 -157.5 42t-117.5 113t-44 157zM1229 270q0 -98 28.5 -153.5 t81.5 -55.5q47 0 87 50.5t63.5 126t23.5 151.5q0 96 -25.5 150.5t-78.5 54.5q-49 0 -90 -49t-65.5 -124t-24.5 -151z" />
<glyph unicode="&#x26;" horiz-adv-x="1484" d="M55 309q0 145 100.5 250t301.5 195q-59 100 -83 170.5t-24 142.5q0 102 61.5 193.5t166 147.5t229.5 56q98 0 171 -42t111.5 -110.5t38.5 -144.5q0 -125 -81.5 -216t-260.5 -169l236 -374q43 76 74 139q20 43 20 74q0 55 -67 61l-39 4l22 94h430l-22 -94l-37 -4 q-59 -8 -104.5 -50t-98.5 -132q-53 -88 -121 -181q66 -104 104 -142t81 -38q41 0 77.5 31t75.5 88l64 -45q-90 -137 -174 -189.5t-187 -52.5q-141 0 -246 127q-84 -68 -174 -97.5t-198 -29.5q-147 0 -248.5 50.5t-150 128t-48.5 159.5zM367 362q0 -59 28.5 -118.5t85 -98.5 t135.5 -39q111 0 205 68l-309 490q-80 -68 -112.5 -137.5t-32.5 -164.5zM645 1139q0 -61 18.5 -121t69.5 -150q106 68 150.5 140.5t44.5 169.5q0 78 -33 128t-90 50q-64 0 -112 -63.5t-48 -153.5z" />
<glyph unicode="'" horiz-adv-x="468" d="M266 823v340q0 106 10 156q12 59 55.5 95t100.5 36q61 0 94 -35t33 -88q0 -45 -14.5 -83t-44.5 -105l-150 -316h-84z" />
<glyph unicode="(" horiz-adv-x="729" d="M74 428q0 233 106.5 461.5t286.5 413t401 299.5l47 -50q-168 -168 -291.5 -389t-190 -464.5t-66.5 -475.5q0 -299 125 -514l-72 -49q-144 109 -245 310.5t-101 457.5z" />
<glyph unicode=")" horiz-adv-x="729" d="M-133 -291q168 168 292 389t190.5 465t66.5 475q0 299 -125 514l71 50q144 -109 245.5 -310.5t101.5 -457.5q0 -233 -106.5 -461t-288 -413t-400.5 -300z" />
<glyph unicode="*" horiz-adv-x="1042" d="M281 944q0 23 12 43.5t33 32.5q31 18 299 90l-45 12q-225 66 -254 82q-20 12 -32.5 31.5t-12.5 42.5t12 43q27 45 76 45q25 0 45 -12q29 -18 231 -215q-72 264 -72 307q0 37 25 62.5t64 25.5q37 0 61.5 -25.5t24.5 -62.5q0 -41 -70 -303q195 195 225 211q23 12 45 12 q23 0 42.5 -12.5t33.5 -32.5t14 -47q0 -23 -12 -42.5t-33 -29.5q-39 -20 -299 -90q268 -72 299 -92q45 -29 45 -74q0 -18 -14 -47q-27 -43 -74 -43q-18 0 -47 14q-31 20 -225 209q70 -258 70 -301q0 -37 -25 -62.5t-61 -25.5q-39 0 -64 25.5t-25 62.5q0 45 72 305l-57 -55 q-20 -18 -87 -81.5t-87 -76.5q-20 -12 -49 -12q-49 0 -72 41q-12 23 -12 45z" />
<glyph unicode="+" d="M164 596v168h377v387h188v-387h377v-168h-377v-387h-188v387h-377z" />
<glyph unicode="," horiz-adv-x="565" d="M-98 -293l24 100q92 6 154.5 45t62.5 97q0 27 -14 48t-41 46q-35 37 -50 61.5t-15 61.5q0 76 48 126t132 50t136 -57.5t52 -137.5q0 -117 -64.5 -217t-177 -161.5t-247.5 -61.5z" />
<glyph unicode="-" horiz-adv-x="739" d="M70 492l53 227h584l-54 -227h-583z" />
<glyph unicode="." horiz-adv-x="565" d="M14 164q0 76 54.5 130t132.5 54t134 -54t56 -130t-56 -130t-134 -54q-76 0 -131.5 54t-55.5 130z" />
<glyph unicode="/" horiz-adv-x="950" d="M-131 -307l1077 1843h160l-1077 -1843h-160z" />
<glyph unicode="0" horiz-adv-x="1265" d="M104 530q0 223 92.5 440.5t258.5 355.5t372 138q127 0 225.5 -73.5t153 -201.5t54.5 -284q0 -223 -92.5 -440t-258.5 -356.5t-372 -139.5q-131 0 -229.5 75t-151 203t-52.5 283zM442 354q0 -143 27 -205.5t86 -62.5q98 0 183 156.5t134.5 391t49.5 453.5q0 141 -26 201 t-83 60q-100 0 -185 -155t-135.5 -388.5t-50.5 -450.5z" />
<glyph unicode="1" horiz-adv-x="956" d="M-45 0l22 92l50 4q102 8 164.5 31t76.5 88l197 850q6 25 6 43q0 25 -16.5 36t-57.5 11h-174l21 88q291 94 483 205h150l-287 -1233q-2 -8 -2 -25q0 -51 49 -68.5t139 -25.5l49 -4l-22 -92h-848z" />
<glyph unicode="2" horiz-adv-x="1112" d="M-61 0l22 82l225 219l82 80q182 174 276.5 275.5t153 203t58.5 199.5q0 84 -51.5 129t-135.5 45q-94 0 -163.5 -48t-141.5 -141l-88 56q61 137 196.5 250.5t332.5 113.5q129 0 216 -46t130 -122.5t43 -169.5q0 -143 -89.5 -274t-217.5 -237.5t-343 -262.5 q-43 -29 -74.5 -53.5t-56.5 -40.5h256q105 0 162 10.5t106.5 47t98.5 116.5h86l-150 -432h-933z" />
<glyph unicode="3" horiz-adv-x="1077" d="M-18 190q33 59 83 93t109 34q55 0 86 -25.5t64 -72.5q55 -78 90 -109.5t94 -31.5q76 0 129 70.5t53 179.5q0 90 -49 167.5t-131 128t-176 62.5l24 94q160 31 279 104.5t119 202.5q0 66 -45 110t-138 44q-100 0 -166.5 -42t-115.5 -105l-88 63q66 127 187.5 218t301.5 91 q174 0 271.5 -81.5t97.5 -206.5q0 -131 -94.5 -225.5t-231.5 -151.5q119 -66 183.5 -159t64.5 -222t-70.5 -232.5t-191.5 -162t-262 -58.5q-131 0 -230.5 36t-161 87t-85.5 100z" />
<glyph unicode="4" horiz-adv-x="1204" d="M39 305l47 209l829 920h277l-211 -912h182l-96 -217h-137l-70 -305h-315l69 305h-575zM240 522h426l145 631z" />
<glyph unicode="5" horiz-adv-x="1048" d="M-18 190q33 59 82 93t108 34q55 0 86 -25.5t64 -72.5q55 -78 89.5 -109.5t92.5 -31.5q84 0 133 76.5t49 183.5q0 127 -80 218t-190.5 141.5t-208.5 66.5l287 670h653l-113 -258h-526l-86 -199q250 -53 393 -194.5t143 -327.5q0 -129 -59 -241t-173 -179.5t-269 -67.5 q-131 0 -230.5 36t-160 87t-84.5 100z" />
<glyph unicode="6" horiz-adv-x="1169" d="M104 465q0 264 136.5 483t369 355.5t514.5 162.5l15 -77q-498 -180 -647 -598q119 125 292 124q152 0 243 -100t91 -258q0 -160 -80 -295t-212 -214t-279 -79q-143 0 -243.5 72t-150 185.5t-49.5 238.5zM428 389q0 -303 135 -303q64 0 115 65.5t80.5 167t29.5 203.5 q0 115 -33.5 176.5t-123.5 61.5q-88 0 -170 -78q-33 -131 -33 -293z" />
<glyph unicode="7" horiz-adv-x="1044" d="M102 0q106 274 328.5 589.5t505.5 586.5h-414q-104 0 -156.5 -33t-101.5 -109h-88l131 400h926l-23 -93q-283 -338 -462 -669.5t-277 -671.5h-369z" />
<glyph unicode="8" horiz-adv-x="1138" d="M61 336q0 135 98.5 239.5t258.5 159.5q-90 94 -125 165t-35 151q0 113 61.5 207t172 150t249.5 56q115 0 206 -45t142.5 -122.5t51.5 -170.5q0 -131 -88 -219t-222 -127q123 -127 171.5 -204.5t48.5 -172.5q0 -121 -72 -221t-192.5 -156.5t-260.5 -56.5 q-147 0 -252.5 51.5t-159 135.5t-53.5 180zM313 344q0 -111 62.5 -185.5t161.5 -74.5q81 0 142.5 55.5t61.5 155.5q0 70 -38.5 132t-131.5 153l-86 86q-172 -119 -172 -322zM557 1163q0 -57 29.5 -111.5t103.5 -125.5l76 -78q147 102 147 287q0 94 -50 154.5t-128 60.5 q-80 0 -129 -53.5t-49 -133.5z" />
<glyph unicode="9" horiz-adv-x="1169" d="M125 43q500 180 649 600q-121 -127 -293 -127q-152 0 -244 100.5t-92 257.5q0 160 80 295.5t213 214t281 78.5q143 0 242.5 -71.5t148.5 -185t49 -238.5q0 -264 -135 -483.5t-368.5 -355.5t-516.5 -163zM475 909q0 -115 35 -176t125 -61q88 0 172 80q31 133 31 290 q0 137 -32 220.5t-104 83.5q-63 0 -115 -66t-82 -167t-30 -204z" />
<glyph unicode=":" horiz-adv-x="641" d="M53 164q0 76 54.5 130t132.5 54t134 -54t56 -130t-56 -130t-134 -54q-76 0 -131.5 54t-55.5 130zM213 860q0 76 54.5 130t132.5 54t134 -54t56 -130t-56 -130t-134 -54q-76 0 -131.5 54t-55.5 130z" />
<glyph unicode=";" horiz-adv-x="641" d="M-57 -293l24 100q92 6 154.5 45t62.5 97q0 27 -14 48t-41 46q-35 37 -50 61.5t-15 61.5q0 76 48 126t132 50t136 -57.5t52 -137.5q0 -117 -64.5 -217t-177 -161.5t-247.5 -61.5zM213 860q0 76 54.5 130t132.5 54t134 -54t56 -130t-56 -130t-134 -54q-76 0 -131.5 54 t-55.5 130z" />
<glyph unicode="&#x3c;" d="M139 602v156l942 313v-188l-678 -203l678 -203v-188z" />
<glyph unicode="=" d="M164 412v168h942v-168h-942zM164 780v168h942v-168h-942z" />
<glyph unicode="&#x3e;" d="M184 289v188l678 203l-678 203v188l942 -313v-156z" />
<glyph unicode="?" horiz-adv-x="948" d="M207 164q0 76 54 130t132 54t134.5 -54t56.5 -130t-56.5 -130t-134.5 -54q-76 0 -131 54t-55 130zM207 1194q57 111 176 191.5t295 80.5q113 0 203 -44t141 -118.5t51 -166.5q0 -127 -86 -222.5t-250 -191.5q-109 -66 -164 -115t-79 -110l-13 -29h-112v43q0 94 16 155.5 t55 110.5t115 113q117 94 171 161.5t54 151.5q0 68 -29.5 107t-74.5 39t-71.5 -35t-59.5 -107q-31 -66 -63.5 -88t-88.5 -22q-59 0 -111.5 28.5t-74.5 67.5z" />
<glyph unicode="@" horiz-adv-x="1890" d="M72 436q0 274 136 486.5t359.5 328t479.5 115.5q215 0 397 -86t289.5 -244.5t107.5 -369.5q0 -168 -67.5 -305.5t-180 -215t-243.5 -77.5q-115 0 -191 62.5t-86 154.5q-59 -100 -140 -159.5t-169 -59.5q-111 0 -181.5 75.5t-70.5 216.5q0 143 70.5 285.5t193.5 236 t273 93.5q129 0 184 -70l135 58h51l-133 -562q-14 -59 -14 -108q0 -70 29.5 -101.5t74.5 -31.5q78 0 144.5 70.5t104.5 186t38 242.5q0 182 -81 318.5t-220 210.5t-311 74q-207 0 -382 -103.5t-279.5 -290t-104.5 -428.5q0 -238 102 -386t256 -212.5t320 -64.5 q150 0 278.5 35.5t228.5 103.5l46 -70q-111 -92 -267.5 -137t-320.5 -45q-193 0 -388.5 72.5t-331.5 247t-136 454.5zM745 401q0 -92 23 -137t72 -45q92 0 179 169t136 405q-12 39 -38.5 63.5t-69.5 24.5q-74 0 -145 -72t-114 -183.5t-43 -224.5z" />
<glyph unicode="A" horiz-adv-x="1490" d="M-104 0l20 92l23 4q59 10 106 50t102 128l740 1164h182l166 -1188q10 -80 43 -112t84 -42l18 -4l-20 -92h-653l20 92l33 4q76 10 109.5 37t33.5 84q0 20 -2 31l-20 153h-490l-94 -153q-33 -53 -33 -86q0 -29 24.5 -43.5t76.5 -22.5l30 -4l-20 -92h-479zM467 522h399 l-69 537z" />
<glyph unicode="B" horiz-adv-x="1402" d="M-39 0l23 92l30 4q66 8 104 33t50 82l235 1012q4 25 5 30q0 41 -28 59.5t-79 24.5l-31 4l23 93h680q184 0 303 -81t119 -229q0 -145 -106.5 -236t-254.5 -116q127 -20 211 -102t84 -211q0 -139 -82 -243.5t-219 -160t-299 -55.5h-768zM502 193q0 -39 27.5 -54.5 t80.5 -15.5h56q153 0 239 95t86 243q0 121 -60.5 177t-166.5 56h-150l-108 -471q-4 -25 -4 -30zM643 817h131q90 0 157.5 41t103.5 109.5t36 150.5q0 193 -199 193h-114z" />
<glyph unicode="C" horiz-adv-x="1392" d="M123 610q0 225 108.5 422t294 315.5t404.5 118.5q260 0 502 -118l-91 -383h-98q-12 188 -86 283t-203 95q-137 0 -242.5 -113.5t-162.5 -289.5t-57 -356q0 -123 41.5 -219.5t115.5 -151.5t166 -55q129 0 223.5 58t206.5 196l82 -50q-119 -207 -263 -301t-345 -94 q-174 0 -309.5 81t-211 227.5t-75.5 334.5z" />
<glyph unicode="D" horiz-adv-x="1583" d="M-39 0l23 92l30 4q66 8 104 33t50 82l235 1012q4 12 5 34q0 35 -26 53.5t-81 26.5l-31 4l23 93h684q176 0 307 -76t201.5 -213t70.5 -320q0 -223 -113.5 -412.5t-313 -301t-443.5 -111.5h-725zM506 197q0 -41 29.5 -55.5t91.5 -14.5h43q158 0 275.5 108.5t180 279.5 t62.5 351q0 207 -70.5 324t-214.5 117h-147l-246 -1076q-4 -29 -4 -34z" />
<glyph unicode="E" horiz-adv-x="1374" d="M-39 0l23 92l30 4q63 8 102.5 33t51.5 82l235 1012q4 25 5 30q0 41 -28 59.5t-79 24.5l-31 4l23 93h1151l-86 -373h-96q-6 96 -30 147.5t-80 75t-163 23.5h-231l-117 -504h143q94 0 147.5 35.5t96.5 124.5h94l-108 -467h-92q-4 94 -40 137t-126 43h-144l-102 -445 q-4 -25 -4 -32q0 -41 30.5 -56.5t96.5 -15.5h98q121 0 197 26.5t133 91t123 189.5h106l-131 -434h-1198z" />
<glyph unicode="F" horiz-adv-x="1298" d="M-39 0l23 92l30 4q66 8 104 33t50 82l235 1012q4 25 5 30q0 41 -28 59.5t-79 24.5l-31 4l23 93h1137l-89 -381h-96q-6 96 -29.5 149t-79 79t-159.5 26h-219l-123 -527h137q92 0 146.5 36t97.5 126h94l-106 -467h-93q-4 92 -40.5 135t-127.5 43h-137l-102 -442l-4 -33 q0 -41 31.5 -58.5t101.5 -23.5l37 -4l-23 -92h-686z" />
<glyph unicode="G" horiz-adv-x="1495" d="M123 610q0 231 112.5 427t305 311.5t420.5 115.5q262 0 512 -123l-89 -376h-98q-10 193 -93 287t-220 94q-143 0 -253 -106.5t-169 -284t-59 -382.5q0 -207 78.5 -343t228.5 -136q55 0 112 23l86 372q4 14 4 41q0 35 -22.5 51.5t-71.5 20.5l-53 6l23 94h632l-20 -94 l-33 -4q-49 -4 -78.5 -29.5t-44.5 -87.5l-92 -387q-117 -68 -246 -99.5t-254 -31.5q-203 0 -342 83t-207.5 228.5t-68.5 329.5z" />
<glyph unicode="H" horiz-adv-x="1699" d="M-39 0l23 92l30 4q66 8 104 33t50 82l235 1012q4 25 5 30q0 41 -28 59.5t-79 24.5l-31 4l23 93h653l-22 -93l-33 -4q-66 -8 -103.5 -32.5t-50.5 -81.5l-96 -416h555l96 416q4 25 4 32q0 39 -26.5 57.5t-77.5 24.5l-31 4l21 93h653l-23 -93l-30 -4q-66 -8 -104 -32.5 t-50 -81.5l-235 -1012q-4 -25 -4 -31q0 -41 27.5 -59.5t78.5 -24.5l31 -4l-23 -92h-653l22 92l33 4q63 8 102.5 33t51.5 82l108 469h-555l-108 -469q-4 -25 -4 -33q0 -39 26.5 -57.5t77.5 -24.5l31 -4l-21 -92h-653z" />
<glyph unicode="I" horiz-adv-x="827" d="M-31 0l23 92l31 4q66 8 103.5 33t49.5 82l236 1012q4 25 4 30q0 41 -28 59.5t-79 24.5l-30 4l22 93h653l-22 -93l-31 -4q-66 -8 -104.5 -32.5t-51.5 -81.5l-233 -1012q-4 -25 -4 -33q0 -39 26.5 -57.5t77.5 -24.5l31 -4l-20 -92h-654z" />
<glyph unicode="J" horiz-adv-x="1099" d="M-66 150q77 124 195 124h2q49 0 77 -22.5t54 -67.5q6 -10 24.5 -45t37 -49t41.5 -14q49 0 80.5 53t60.5 180l211 914q4 25 4 32q0 39 -26.5 57.5t-78.5 24.5l-30 4l22 93h656l-23 -93l-31 -4q-66 -8 -103.5 -32.5t-49.5 -81.5l-195 -842q-47 -199 -181 -305.5 t-341 -106.5q-158 0 -264.5 55.5t-141.5 125.5z" />
<glyph unicode="K" horiz-adv-x="1615" d="M-39 0l23 92l30 4q66 8 104 33t50 82l235 1012q4 25 5 30q0 41 -28 59.5t-79 24.5l-31 4l23 93h653l-22 -93l-33 -4q-66 -8 -103.5 -32.5t-50.5 -81.5l-112 -486l534 451q66 53 66 94q0 45 -92 59l22 93h582l-25 -101q-92 -16 -206.5 -73.5t-227.5 -149.5l-287 -238 l314 -608q45 -88 82.5 -121.5t91.5 -44.5l30 -6l-22 -92h-653l22 92l35 4q74 10 74 58q0 25 -19 63l-217 438l-151 -127l-74 -317q-4 -25 -4 -33q0 -39 26.5 -57.5t77.5 -24.5l31 -4l-21 -92h-653z" />
<glyph unicode="L" horiz-adv-x="1337" d="M-39 0l23 92l30 4q66 8 104 33t50 82l235 1012q4 25 5 30q0 41 -28 59.5t-79 24.5l-31 4l23 93h653l-22 -93l-33 -4q-66 -8 -103.5 -32.5t-50.5 -81.5l-227 -992q-4 -25 -4 -32q0 -41 30.5 -56.5t96.5 -15.5h59q115 0 190.5 30.5t138 102.5t136.5 209h107l-146 -469 h-1157z" />
<glyph unicode="M" horiz-adv-x="1970" d="M-39 0l23 92l24 4q70 12 111 42t59 114l225 971q4 25 5 30q0 41 -28 59.5t-79 24.5l-31 4l23 93h495l181 -975l633 975h503l-22 -93l-31 -4q-66 -8 -103.5 -32.5t-50.5 -81.5l-233 -1012q-4 -25 -4 -33q0 -39 26.5 -57.5t77.5 -24.5l31 -4l-22 -92h-652l23 92l31 4 q66 8 103.5 33t49.5 82l199 862l-699 -1073h-98l-199 1083l-192 -831q-8 -33 -8 -59q0 -51 25.5 -70t76.5 -27l27 -4l-23 -92h-477z" />
<glyph unicode="N" horiz-adv-x="1587" d="M-45 0l22 92l25 4q70 12 110 39t56 101l227 987q4 12 4 34q0 39 -26.5 56.5t-77.5 23.5l-29 4l21 93h409l521 -908l151 660q6 31 6 55q0 49 -26.5 67.5t-77.5 28.5l-23 4l21 93h477l-21 -93l-28 -4q-68 -10 -108 -39.5t-58 -111.5l-275 -1188h-131l-604 1059l-190 -821 q-6 -27 -6 -48q0 -47 26.5 -65.5t77.5 -26.5l27 -4l-23 -92h-477z" />
<glyph unicode="O" horiz-adv-x="1566" d="M123 616q0 211 105.5 408t292 319.5t411.5 122.5q178 0 315 -84t213 -231t76 -332q0 -215 -105.5 -412.5t-291 -318.5t-408.5 -121q-178 0 -316.5 84t-215 232.5t-76.5 332.5zM492 543q0 -205 60 -329t177 -124q121 0 221.5 122t158.5 309.5t58 375.5q0 205 -58 325.5 t-177 120.5t-220.5 -119.5t-160.5 -307t-59 -373.5z" />
<glyph unicode="P" horiz-adv-x="1382" d="M-39 0l23 92l30 4q66 8 104 33t50 82l235 1012q4 25 5 30q0 41 -28 59.5t-79 24.5l-31 4l23 93h676q133 0 243.5 -42t178 -126t67.5 -205q0 -139 -79 -245.5t-222 -165t-332 -58.5h-233l-88 -381q-2 -10 -2 -27q0 -43 34.5 -62.5t96.5 -25.5l31 -4l-23 -92h-680zM621 719 h178q149 0 228 97t79 251q0 125 -62.5 182.5t-166.5 57.5h-119z" />
<glyph unicode="Q" horiz-adv-x="1566" d="M123 616q0 211 105.5 408t292 319.5t411.5 122.5q178 0 315 -84t213 -231t76 -332q0 -160 -59.5 -313.5t-169 -274t-252.5 -190.5l78 -68q81 -71 141.5 -102t138.5 -31q57 0 121 17l-16 -82q-170 -102 -330 -103q-113 0 -200 44t-177 130l-129 123q-166 10 -293 97.5 t-196.5 230.5t-69.5 319zM492 543q0 -205 60 -329t177 -124q121 0 221.5 122t158.5 309.5t58 375.5q0 205 -58 325.5t-177 120.5t-220.5 -119.5t-160.5 -307t-59 -373.5z" />
<glyph unicode="R" horiz-adv-x="1517" d="M-39 0l23 92l30 4q66 8 104 33t50 82l235 1012q4 25 5 30q0 41 -28 59.5t-79 24.5l-31 4l23 93h668q211 0 347 -90.5t136 -256.5q0 -154 -102.5 -258t-282.5 -147l155 -348q41 -92 70 -139.5t54.5 -66.5t64.5 -30l22 -6l-20 -92h-399q-51 88 -103 215l-125 311 q-27 66 -56.5 91.5t-82.5 25.5h-35l-100 -432q-4 -12 -4 -35q0 -39 26.5 -56.5t77.5 -23.5l31 -4l-21 -92h-653zM633 766h141q164 0 247 88t83 233q0 113 -62.5 166.5t-154.5 53.5h-129z" />
<glyph unicode="S" horiz-adv-x="1167" d="M23 102l110 416h98v-9q0 -185 77 -301q79 -118 241 -118q113 0 176 59.5t63 157.5q0 80 -48 138.5t-146 134.5l-113 84q-127 92 -184 175t-57 183q0 131 72.5 232.5t191.5 155.5t254 54q117 0 236.5 -30.5t209.5 -71.5l-94 -363h-96q-4 160 -75 251t-202 91 q-90 0 -148.5 -52t-58.5 -132q0 -66 44 -119t139 -123l104 -77q147 -109 206.5 -197t59.5 -188q0 -145 -72.5 -255t-198.5 -169.5t-280 -59.5q-147 0 -269 38t-240 95z" />
<glyph unicode="T" horiz-adv-x="1427" d="M180 1051l121 383h1258l-62 -383h-100q-12 92 -36 145t-79 82t-154 29h-65l-252 -1096q-4 -25 -4 -33q0 -39 26.5 -57.5t77.5 -24.5l31 -4l-22 -92h-652l23 92l31 4q66 8 103.5 33t49.5 82l252 1096h-53q-143 0 -225 -60.5t-160 -195.5h-109z" />
<glyph unicode="U" horiz-adv-x="1566" d="M215 393q0 72 18 152l158 678q4 12 4 34q0 39 -26.5 56.5t-77.5 23.5l-31 4l23 93h649l-23 -93l-30 -4q-66 -8 -105 -32.5t-51 -81.5l-158 -701q-12 -61 -12 -112q0 -127 73.5 -193.5t198.5 -66.5q145 0 228.5 80.5t122.5 250.5l165 721q6 25 7 45q0 45 -27 62.5 t-80 27.5l-24 4l22 93h473l-22 -93l-27 -4q-68 -12 -107.5 -37.5t-56.5 -97.5l-168 -731q-53 -231 -199.5 -366.5t-377.5 -135.5q-271 0 -405 115t-134 309z" />
<glyph unicode="V" horiz-adv-x="1488" d="M205 1341l20 93h643l-20 -93l-33 -4q-78 -10 -112.5 -35.5t-34.5 -82.5q0 -20 2 -33l110 -817l506 817q31 53 31 82q0 53 -103 69l-24 4l20 93h480l-21 -93l-22 -6q-59 -16 -108.5 -56t-100.5 -120l-742 -1163h-182l-172 1182q-12 82 -41 115.5t-78 43.5z" />
<glyph unicode="W" horiz-adv-x="2193" d="M205 1341l20 93h637l-20 -93l-33 -4q-78 -10 -112.5 -37.5t-34.5 -87.5l2 -26l88 -819l391 632l-21 179q-8 82 -35.5 114.5t-78.5 44.5l-19 4l21 93h632l-20 -93l-33 -4q-80 -10 -113.5 -36.5t-33.5 -86.5l2 -28l76 -813l475 813q33 53 33 86q0 29 -25 43t-76 22l-29 4 l21 93h475l-20 -93l-23 -4q-61 -10 -108.5 -50t-100.5 -128l-704 -1163h-183l-90 792l-499 -792h-185l-139 1182q-10 82 -40 115.5t-79 43.5z" />
<glyph unicode="X" horiz-adv-x="1538" d="M-88 0l20 92l23 4q61 12 129 52t127 106l426 459l-209 444q-45 92 -78 132t-86 48l-24 4l22 93h658l-23 -93l-39 -4q-119 -12 -119 -84q0 -27 15 -55l149 -330l305 328q57 59 58 94q0 39 -80 47l-39 4l22 93h521l-23 -93l-25 -4q-76 -14 -139 -55t-139 -119l-401 -411 l241 -500q35 -72 78 -107.5t109 -48.5l22 -4l-20 -92h-668l20 92l39 4q100 8 101 74q0 27 -19 66l-168 352l-319 -350q-45 -51 -45 -84q0 -47 90 -58l39 -4l-21 -92h-530z" />
<glyph unicode="Y" horiz-adv-x="1396" d="M205 1341l22 93h660l-23 -93l-37 -4q-66 -6 -100.5 -27.5t-34.5 -66.5q0 -16 10 -51l134 -422l325 414q41 53 41 88q0 51 -102 65l-31 4l23 93h505l-22 -93l-23 -4q-68 -12 -123 -51t-135 -137l-393 -490l-104 -448q-4 -25 -4 -33q0 -39 26.5 -57.5t77.5 -24.5l31 -4 l-23 -92h-651l22 92l31 4q66 8 104 33t50 82l94 407l-190 570q-27 80 -55.5 108.5t-84.5 40.5z" />
<glyph unicode="Z" horiz-adv-x="1333" d="M-45 0l22 94l1059 1213h-305q-121 0 -191.5 -26t-120.5 -82t-112 -169h-106l123 404h1155l-21 -95l-1057 -1212h254q147 0 230.5 27.5t141.5 92t136 202.5h103l-133 -449h-1178z" />
<glyph unicode="[" horiz-adv-x="813" d="M8 -264l416 1802h543l-23 -102h-252l-370 -1598h251l-22 -102h-543z" />
<glyph unicode="\" horiz-adv-x="950" d="M317 1516h144l289 -1803h-144z" />
<glyph unicode="]" horiz-adv-x="813" d="M-94 -264l24 102h252l369 1598h-252l23 102h542l-415 -1802h-543z" />
<glyph unicode="^" horiz-adv-x="1220" d="M78 532l454 902h156l455 -902h-195l-338 680l-338 -680h-194z" />
<glyph unicode="_" horiz-adv-x="1155" d="M-193 -297l25 102h1167l-24 -102h-1168z" />
<glyph unicode="`" horiz-adv-x="1228" d="M637 1485l6 28h284l37 -364h-86z" />
<glyph unicode="a" horiz-adv-x="1241" d="M41 291q0 197 101.5 372t257 280.5t309.5 105.5q63 0 126.5 -20.5t106.5 -57.5l211 76h18l-188 -818q-6 -27 -6 -47q0 -39 33 -39q47 0 125 117l57 -43q-82 -141 -163 -193.5t-175 -52.5q-90 0 -138 51.5t-48 145.5q0 57 14 115l23 96h-13q-88 -193 -187 -300.5 t-222 -107.5q-100 0 -171 84t-71 236zM375 301q0 -113 59 -113q55 0 131 99.5t144.5 248t99.5 283.5l14 58q-14 37 -42.5 55t-63.5 18q-94 0 -172 -110.5t-124 -265t-46 -273.5z" />
<glyph unicode="b" horiz-adv-x="1202" d="M76 238l225 979q6 25 6 45q0 33 -23.5 50t-80.5 34l18 77l443 93h18l-201 -875h11q88 193 189 300.5t228 107.5q66 0 123.5 -36t92 -109t34.5 -175q0 -199 -99 -374t-258 -279.5t-323 -104.5q-150 0 -262.5 75t-140.5 192zM360 131q37 -61 113 -61q96 0 177 109.5 t128 264t47 275.5q0 112 -64 112h-1q-59 0 -137 -101t-146.5 -251.5t-101.5 -285.5z" />
<glyph unicode="c" horiz-adv-x="937" d="M59 379q0 158 78 314.5t214 257t298 100.5q109 0 194 -48.5t109 -130.5q-55 -122 -157 -122h-2q-49 0 -70 21.5t-43 70.5q-25 55 -41 77.5t-49 22.5q-61 0 -111.5 -70.5t-78 -182t-27.5 -226.5q0 -139 53 -209t137 -70q61 0 121.5 38t130.5 134l66 -41 q-166 -344 -453 -344q-100 0 -185 53.5t-134.5 147.5t-49.5 207z" />
<glyph unicode="d" horiz-adv-x="1247" d="M41 291q0 197 100.5 372t258 280.5t317.5 105.5q80 0 153 -29l45 197q6 25 7 43q0 35 -24 52t-81 34l19 77l442 93h18l-297 -1285q-6 -27 -6 -45q0 -43 33 -43q47 0 125 117l57 -43q-82 -141 -162.5 -193.5t-175.5 -52.5q-90 0 -137 50.5t-47 144.5q0 57 14 117l23 96 h-14q-88 -193 -189.5 -300.5t-228.5 -107.5q-66 0 -123 36t-92 108.5t-35 175.5zM375 301q0 -113 67 -113q58 0 136.5 100.5t147.5 249t99 283.5l15 66q-37 63 -113 63q-98 0 -178 -110.5t-127 -265t-47 -273.5z" />
<glyph unicode="e" horiz-adv-x="954" d="M59 373q0 164 80 321.5t217.5 257t296.5 99.5q123 0 203 -61.5t80 -155.5q0 -160 -168 -250t-395 -115v-27q0 -123 51 -188.5t137 -65.5q68 0 128.5 38t119.5 116l63 -37q-156 -336 -442 -336q-111 0 -194.5 53.5t-130 145.5t-46.5 205zM381 557q143 25 223 98.5 t80 192.5q0 43 -17.5 69.5t-52.5 26.5q-77 0 -144 -115.5t-89 -271.5z" />
<glyph unicode="f" horiz-adv-x="739" d="M-371 -303q25 47 62 73.5t82 26.5q37 0 58.5 -17.5t39.5 -53.5q23 -41 36 -56.5t36 -15.5q41 0 73.5 76.5t71.5 271.5l174 879h-143l24 104l148 39l10 53q31 154 106.5 255.5t175 147.5t203.5 46q95 0 163.5 -25.5t107.5 -62.5t51 -72q-20 -47 -61 -78t-93 -31 q-43 0 -65.5 20.5t-48.5 65.5q-4 8 -17.5 31t-27 34t-29.5 11q-45 0 -72.5 -64.5t-66.5 -244.5l-19 -86h230l-70 -143h-190l-177 -842q-100 -481 -487 -481q-104 0 -180 40t-105 99z" />
<glyph unicode="g" horiz-adv-x="1026" d="M-113 -203q0 78 60.5 137.5t165.5 96.5q-78 61 -78 145q0 80 62.5 140.5t174.5 93.5q-68 49 -108.5 116.5t-40.5 143.5q0 109 62.5 195.5t166 136t221.5 49.5q88 0 172 -47h373l-71 -144h-170q69 -79 69 -166q0 -100 -64.5 -181t-171 -128t-225.5 -47q-80 0 -153 37 q-61 -31 -62 -74q0 -27 27 -44t96 -38l166 -47q168 -47 246 -104.5t78 -153.5q0 -111 -79 -195t-206 -130t-270 -46q-213 0 -327 72t-114 182zM113 -141q0 -90 78.5 -151.5t211.5 -61.5q100 0 164 40t64 101q0 41 -35 63.5t-121 47.5l-180 53q-74 20 -127 47 q-55 -53 -55 -139zM403 606q0 -80 18.5 -123t65.5 -43q48 0 89.5 50.5t65.5 128t24 155.5q0 84 -19.5 129t-66.5 45t-87 -50t-65 -130t-25 -162z" />
<glyph unicode="h" horiz-adv-x="1247" d="M33 0l282 1217q6 25 7 43q0 35 -24 52t-83 34l18 77l443 93h18l-198 -861h14q100 199 219 298.5t232 99.5q92 0 136 -51.5t44 -143.5q0 -63 -19 -141l-123 -488q-8 -27 -8 -47q0 -39 33 -39q25 0 53.5 28t73.5 89l55 -43q-84 -139 -166 -192.5t-176 -53.5 q-88 0 -135 50.5t-47 144.5q0 51 20 137l111 432q8 31 8 56q0 47 -41 47q-43 0 -117.5 -74t-153.5 -233.5t-134 -405.5l-31 -125h-311z" />
<glyph unicode="i" horiz-adv-x="677" d="M104 166q0 57 15 117l106 465q6 25 6 43q0 35 -23.5 52t-80.5 34l18 77l443 93h18l-188 -818q-6 -27 -6 -47q0 -39 32 -39q49 0 127 117l58 -43q-84 -141 -165 -193.5t-175 -52.5q-90 0 -137.5 50.5t-47.5 144.5zM311 1341q0 68 52 118t126 50t125 -50t51 -118 t-51 -117.5t-125 -49.5t-126 50t-52 117z" />
<glyph unicode="j" horiz-adv-x="645" d="M-401 -303q31 55 65.5 77.5t77.5 22.5q35 0 55.5 -17.5t40.5 -53.5q23 -39 35 -55.5t35 -16.5q27 0 45 26.5t38.5 95t55.5 214.5l178 753q6 29 6 48q0 35 -22.5 52t-81.5 34l18 77l443 93h18l-235 -1027q-55 -236 -189.5 -349t-298.5 -113q-102 0 -180 40t-104 99z M311 1341q0 68 52 118t126 50t125 -50t51 -118t-51 -117.5t-125 -49.5t-126 50t-52 117z" />
<glyph unicode="k" horiz-adv-x="1177" d="M33 0l282 1217q6 25 7 43q0 35 -24 52t-83 34l18 77l443 93h18l-248 -1072h17q270 602 536 603q68 0 119 -26t78 -63q-20 -92 -68.5 -145t-103.5 -53q-35 0 -88 20q-57 20 -94 21q-35 0 -62.5 -14.5t-64.5 -55.5l159 -407q39 -98 61.5 -132t55.5 -34q29 0 57.5 24.5 t65.5 77.5l57 -43q-150 -246 -331 -246q-80 0 -132.5 48.5t-103.5 185.5l-90 233q-117 -211 -170 -438h-311z" />
<glyph unicode="l" horiz-adv-x="634" d="M72 168q0 57 14 115l215 934q6 25 6 45q0 33 -23.5 50t-80.5 34l18 77l443 93h18l-297 -1285q-6 -27 -6 -45q0 -43 33 -43q49 0 127 117l57 -43q-82 -141 -164 -193.5t-176 -52.5q-90 0 -137 51.5t-47 145.5z" />
<glyph unicode="m" horiz-adv-x="1867" d="M51 0l174 748q6 25 6 43q0 35 -23.5 52t-80.5 34l18 77l443 93h18l-90 -392h12q100 199 218 298.5t231 99.5q180 0 180 -197q0 -61 -18 -139l-15 -62h11q100 199 217.5 298.5t230.5 99.5q92 0 136 -50.5t44 -144.5q0 -55 -20 -141l-123 -488q-8 -27 -8 -47q0 -39 33 -39 q27 0 55.5 29t71.5 88l57 -43q-84 -139 -167 -192.5t-177 -53.5q-88 0 -135 50.5t-47 144.5q0 51 20 137l111 432q10 37 10 58q0 45 -41 45q-43 0 -116 -73t-150.5 -231.5t-132.5 -400.5l-31 -133h-322l178 735q8 45 9 58q0 45 -39 45q-43 0 -117 -73t-152.5 -232.5 t-134.5 -405.5l-28 -127h-316z" />
<glyph unicode="n" horiz-adv-x="1265" d="M51 0l174 748q6 25 6 43q0 35 -23.5 52t-80.5 34l18 77l443 93h18l-90 -392h14q100 199 219 298.5t232 99.5q92 0 136 -51.5t44 -143.5q0 -63 -18 -141l-123 -488q-8 -27 -8 -47q0 -39 32 -39q25 0 53.5 28t73.5 89l56 -43q-84 -139 -166 -192.5t-176 -53.5 q-90 0 -136.5 50.5t-46.5 144.5q0 63 21 137l111 432q8 27 8 51q0 51 -43 52q-43 0 -117 -76t-152.5 -236.5t-134.5 -400.5l-28 -125h-316z" />
<glyph unicode="o" horiz-adv-x="1148" d="M63 449q0 158 85 297t223.5 222t287.5 83q115 0 212.5 -62.5t154.5 -172t57 -243.5q0 -158 -86 -298t-224 -223t-288 -83q-112 0 -209.5 63.5t-155 173t-57.5 243.5zM397 315q0 -117 24.5 -176t72.5 -59q69 0 128.5 98t93.5 245.5t34 285.5q0 231 -97 231 q-70 0 -129 -97.5t-93 -243.5t-34 -284z" />
<glyph unicode="p" horiz-adv-x="1220" d="M-190 -430l20 88l27 4q59 10 87.5 34.5t41.5 84.5l223 964q6 25 6 46q0 33 -23.5 50t-80.5 36l18 77l444 93h19l-94 -406h12q88 193 190.5 300.5t229.5 107.5q102 0 175 -83t73 -237q0 -199 -98.5 -374t-256 -279.5t-325.5 -104.5q-70 0 -152 23l-49 -213q-6 -31 -6 -51 q0 -33 16.5 -48.5t52.5 -19.5l29 -4l-20 -88h-559zM377 131q39 -61 115 -61q96 0 177 109.5t128 264t47 275.5q0 112 -65 112h-1q-59 0 -138 -101t-148.5 -251.5t-100.5 -288.5z" />
<glyph unicode="q" horiz-adv-x="1198" d="M41 291q0 199 100.5 374t259 279.5t320.5 104.5q66 0 127 -20.5t104 -57.5l217 76h19l-291 -1266q-6 -31 -6 -51q0 -33 15.5 -48.5t51.5 -19.5l29 -4l-20 -88h-561l20 88l27 4q57 10 85.5 33.5t43.5 85.5l141 598h-14q-88 -193 -189.5 -300.5t-228.5 -107.5 q-66 0 -123 36t-92 108.5t-35 175.5zM375 301q0 -113 67 -113q58 0 136.5 99.5t148.5 249t98 284.5l15 68q-39 61 -113 61q-98 0 -178 -110.5t-127 -265t-47 -273.5z" />
<glyph unicode="r" horiz-adv-x="983" d="M51 0l174 748q6 25 6 43q0 35 -23.5 52t-80.5 34l18 77l445 93h18l-114 -500h12q57 143 102 238.5t121 178.5t170 83q62 0 108 -24t74 -54q-25 -102 -71.5 -160.5t-100.5 -58.5q-29 0 -75 16q-47 14 -68 14q-61 0 -115 -78q-74 -111 -155.5 -306t-128.5 -396h-316z" />
<glyph unicode="s" horiz-adv-x="827" d="M-16 172q27 45 65.5 72.5t85.5 27.5q41 0 64.5 -15t46.5 -50q8 -12 33.5 -52t55.5 -59.5t66 -19.5q43 0 68 25.5t25 66.5q0 43 -31 85t-115 126l-86 86q-80 80 -111.5 136t-31.5 126q0 80 47 155.5t134 123t202 47.5q119 0 207 -45t120 -107q-20 -59 -62 -92t-87 -33 q-39 0 -62.5 16.5t-52.5 59.5q-29 49 -53.5 72.5t-62.5 23.5q-37 0 -60.5 -23.5t-23.5 -66.5q0 -37 28.5 -76t100.5 -112l79 -80q86 -86 127 -147.5t41 -133.5q0 -88 -46 -165.5t-134 -125t-205 -47.5q-118 0 -223.5 51.5t-148.5 149.5z" />
<glyph unicode="t" horiz-adv-x="745" d="M100 172q0 55 15 111l141 602h-137l24 104q104 33 193.5 100.5t171.5 192.5h151l-59 -258h213l-59 -139h-185l-153 -656q-6 -25 -6 -43q0 -43 36 -43q31 0 74 39t84 97l60 -43q-92 -150 -183.5 -207.5t-187.5 -57.5q-92 0 -142.5 52.5t-50.5 148.5z" />
<glyph unicode="u" horiz-adv-x="1292" d="M57 807q84 135 166 190.5t172 55.5t138.5 -51.5t48.5 -147.5q0 -59 -19 -133l-110 -432q-10 -37 -11 -56q0 -47 43 -47q39 0 108 73t142.5 228.5t130.5 389.5l35 147h316l-185 -795q-6 -27 -6 -47q0 -39 33 -39q45 0 127 117l57 -43q-84 -141 -165 -193.5t-175 -52.5 q-92 0 -139 51.5t-47 145.5q0 55 14 115l21 86h-13q-102 -199 -213.5 -298.5t-220.5 -99.5q-92 0 -136 51.5t-44 143.5q0 66 18 141l123 488q8 27 8 47q0 39 -32 39q-25 0 -53.5 -29t-73.5 -88z" />
<glyph unicode="v" horiz-adv-x="989" d="M18 877l19 77l348 93h18l129 -801q96 115 160 229.5t64 202.5q0 35 -12.5 60.5t-36.5 60.5q-23 31 -34 53t-11 51q0 63 52 101t146 49q109 -64 109 -207q0 -139 -107.5 -312.5t-242 -318.5t-222.5 -219h-121l-126 747q-10 66 -34 90.5t-98 43.5z" />
<glyph unicode="w" horiz-adv-x="1507" d="M25 877l18 77l350 93h19l80 -666l354 643h92l129 -772q88 115 145.5 226.5t57.5 199.5q0 35 -12.5 59.5t-38.5 61.5q-23 29 -35.5 52t-12.5 52q0 63 52.5 101t146.5 49q109 -64 109 -207q0 -139 -102.5 -313.5t-231.5 -320.5t-211 -216h-121l-102 584l-336 -584h-125 l-94 747q-8 66 -32 90.5t-99 43.5z" />
<glyph unicode="x" horiz-adv-x="1124" d="M-63 53q20 82 62 136.5t103 54.5q23 0 68 -13q45 -12 74 -12q45 0 88 42t102 153l-102 293q-27 76 -46.5 108.5t-50 47t-90.5 16.5l21 77l342 91h18l117 -338q94 180 172 259t172 79q53 0 102.5 -24t71.5 -56q-20 -84 -62 -137.5t-104 -53.5q-25 0 -69 12q-45 12 -72 13 q-43 0 -85 -39t-95 -137l104 -301q33 -94 56.5 -131t54.5 -37q29 0 58.5 25.5t68.5 78.5l57 -43q-154 -244 -340 -244q-82 0 -132 53.5t-103 204.5l-35 99q-96 -188 -175 -272.5t-175 -84.5q-55 0 -104.5 23.5t-71.5 56.5z" />
<glyph unicode="y" horiz-adv-x="1024" d="M-197 -354q25 74 73 116.5t112 42.5q35 0 64.5 -10t35.5 -12q53 -23 90 -23q43 0 82 25t107 88l-191 819q-16 76 -31.5 109t-40 47t-84.5 29l17 77l352 93h19l196 -902q186 262 187 484q0 45 -18.5 79.5t-53.5 79.5q-29 37 -42 61.5t-13 53.5q0 57 51 99t147 51 q62 -33 90.5 -96.5t28.5 -141.5q0 -223 -173 -514t-417 -532q-111 -109 -200 -158t-195 -49q-63 0 -113.5 23.5t-79.5 60.5z" />
<glyph unicode="z" horiz-adv-x="915" d="M-57 57l704 721h-180q-102 0 -152.5 -8t-82 -35.5t-62.5 -89.5h-88l131 379h768l-16 -70l-684 -698q37 10 81 10q41 0 85.5 -9t84.5 -21q86 -25 123 -25q47 0 84 28.5t78 100.5l57 -27q-76 -180 -147.5 -259t-161.5 -79q-57 0 -105 9.5t-108 27.5q-104 31 -166 31 q-94 0 -194 -57z" />
<glyph unicode="{" horiz-adv-x="813" d="M59 590l23 94l27 4q66 10 106.5 47t73.5 119t69 240q57 250 191.5 347t349.5 97h86l-24 -102h-64q-98 0 -144 -44t-73 -161l-43 -178q-43 -186 -118 -284.5t-228 -131.5q96 -25 139 -80t43 -147q0 -72 -27 -189l-43 -178q-14 -55 -14 -98q0 -57 33 -82t106 -25h64 l-23 -102h-86q-174 0 -266 61.5t-92 214.5q0 68 22 168q43 184 43 271q0 68 -24.5 97.5t-79.5 37.5z" />
<glyph unicode="|" horiz-adv-x="675" d="M311 -291v1827h150v-1827h-150z" />
<glyph unicode="}" horiz-adv-x="815" d="M-113 -264l25 102h63q98 0 145.5 45t74.5 160l41 178q43 186 117.5 284.5t228.5 131.5q-96 25 -139.5 80t-43.5 147q0 72 27 189l43 178q14 57 14 100q0 57 -32.5 81t-106.5 24h-63l22 102h86q174 0 266.5 -61.5t92.5 -214.5q0 -68 -23 -168q-43 -184 -43 -271 q0 -68 24.5 -97.5t79.5 -37.5l27 -4l-22 -94l-27 -4q-66 -10 -107 -47t-73.5 -119t-69.5 -240q-57 -250 -191.5 -347t-349.5 -97h-86z" />
<glyph unicode="~" d="M174 545q37 172 107.5 241.5t162.5 69.5q55 0 104.5 -16.5t121.5 -48.5q59 -29 98 -42.5t78 -13.5q104 0 131 117h119q-37 -172 -107.5 -241.5t-163.5 -69.5q-55 0 -104 16t-121 49q-59 29 -98 42.5t-78 13.5q-104 0 -131 -117h-119z" />
<glyph unicode="&#xa1;" horiz-adv-x="579" d="M-66 -295q0 45 19.5 103.5t60.5 158.5l236 570h112l-38 -725q-6 -119 -58.5 -188.5t-156.5 -69.5q-78 0 -126.5 45t-48.5 106zM170 854q0 76 55.5 130t132.5 54q76 0 131.5 -54t55.5 -130t-54.5 -130t-132.5 -54t-133 54t-55 130z" />
<glyph unicode="&#xa2;" horiz-adv-x="1069" d="M125 379q0 150 71.5 300t197.5 252.5t280 117.5l35 151h112l-37 -156q86 -14 150.5 -60t85.5 -112q-27 -59 -62.5 -87.5t-89.5 -28.5q-49 0 -73.5 23.5t-40.5 66.5q-2 4 -4 10t-7 12l-161 -698q25 -4 36 -4q68 0 129.5 41t135.5 149l65 -41q-154 -319 -411 -342l-43 -184 h-113l45 191q-131 27 -216 138t-85 261zM436 451q0 -137 49 -213l164 708q-61 -4 -110.5 -77.5t-76 -187.5t-26.5 -230z" />
<glyph unicode="&#xa3;" d="M-33 0l15 76q133 109 213.5 242t107.5 319h-149l30 123h131q2 29 2 86q0 186 68 325.5t189.5 214t279.5 74.5q305 1 401 -198q-23 -53 -70.5 -90t-103.5 -37q-45 0 -72.5 18t-58.5 76q-37 74 -59.5 99.5t-67.5 25.5q-57 0 -106 -70t-79 -196.5t-30 -288.5q0 -27 -2 -39 h314l-31 -123h-301q-59 -231 -297 -379h346q104 0 160.5 13.5t94.5 48t91 112.5h86l-149 -432h-953z" />
<glyph unicode="&#xa4;" d="M164 264l174 174q-88 104 -88 242q0 135 86 242l-172 172l57 57l174 -174q102 84 240 84q137 0 239 -84l175 174l57 -57l-172 -172q86 -106 86 -242q0 -138 -88 -242l174 -174l-57 -57l-175 174q-104 -82 -239 -82t-240 82l-174 -174zM342 680q0 -80 39 -147.5 t106.5 -107.5t147.5 -40t147.5 40t106.5 107.5t39 147.5t-39 147.5t-106.5 107.5t-147.5 40t-147.5 -40t-106.5 -107.5t-39 -147.5z" />
<glyph unicode="&#xa5;" d="M88 410l27 112h301l26 115h-301l27 113h250l-131 440q-23 76 -44.5 108.5t-54.5 40.5l-16 4l18 91h625l-20 -91l-37 -4q-59 -6 -88 -26.5t-29 -63.5q0 -27 8 -57l94 -381l269 375q47 66 47 100q0 23 -21.5 35t-68.5 18l-27 4l21 91h440l-19 -91l-24 -4q-51 -10 -98.5 -50 t-122.5 -142l-289 -397h256l-25 -113h-290l-27 -115h289l-27 -112h-289l-45 -201q-4 -25 -4 -33q0 -39 26.5 -57.5t78.5 -24.5l26 -4l-20 -90h-660l21 90l30 4q66 8 104 33t50 82l45 201h-301z" />
<glyph unicode="&#xa6;" horiz-adv-x="673" d="M309 -287v776h152v-776h-152zM309 752v776h152v-776h-152z" />
<glyph unicode="&#xa7;" horiz-adv-x="1083" d="M49 -172q20 43 56 67.5t79 24.5q47 0 72 -22.5t47 -73.5q25 -59 54.5 -90t74.5 -31q59 0 90 41t31 100q0 51 -32 100.5t-95 118.5l-131 142q-88 96 -128 165.5t-40 139.5q0 129 87 220t226 132q-68 72 -99.5 133.5t-31.5 130.5q0 96 53.5 172t140.5 119t185 43 q133 0 231.5 -58.5t127.5 -154.5q-20 -43 -56.5 -67.5t-79.5 -24.5q-49 0 -73.5 22.5t-46.5 73.5q-27 59 -54.5 90t-72.5 31q-60 0 -91.5 -41t-31.5 -100q0 -51 31.5 -99.5t97.5 -119.5l131 -142q88 -96 128 -165.5t40 -139.5q0 -129 -87 -220t-227 -132q68 -72 99.5 -133.5 t31.5 -130.5q0 -96 -53 -172t-140 -119t-185 -43q-133 0 -231.5 58.5t-127.5 154.5zM373 614q0 -57 34.5 -113.5t106.5 -135.5l90 -97q55 31 87 81t32 112q0 57 -35 113.5t-106 136.5l-90 96q-55 -31 -87 -81t-32 -112z" />
<glyph unicode="&#xa8;" horiz-adv-x="1228" d="M428 1339q0 63 47 108.5t115 45.5q66 0 112.5 -45t46.5 -109q0 -63 -47 -108t-112 -45q-68 0 -115 45t-47 108zM848 1339q0 63 46 108.5t113 45.5q68 0 114 -45t46 -109q0 -63 -46 -108t-114 -45q-67 0 -113 45t-46 108z" />
<glyph unicode="&#xa9;" horiz-adv-x="1699" d="M145 717q0 203 100.5 373t273.5 270t378 100t377 -100t272.5 -271t100.5 -372q0 -203 -100.5 -374t-272.5 -271.5t-377 -100.5q-207 0 -379 100.5t-272.5 271.5t-100.5 374zM254 717q0 -174 86 -322.5t234.5 -236.5t322.5 -88t322.5 88t234.5 236.5t86 322.5t-86 322.5 t-234.5 236.5t-322.5 88t-322.5 -88t-234.5 -236.5t-86 -322.5zM457 709q0 137 63.5 243.5t170 165t229.5 58.5q170 0 297 -64v-252h-76q-61 207 -230 207q-61 0 -115.5 -38t-88 -111.5t-33.5 -174.5q0 -150 76.5 -245t203.5 -95q84 0 141.5 35t106.5 105l68 -39 q-49 -111 -141.5 -181.5t-229.5 -70.5q-125 0 -225.5 57.5t-158.5 160.5t-58 239z" />
<glyph unicode="&#xaa;" horiz-adv-x="915" d="M145 899q0 147 76 278.5t193.5 210t230.5 78.5q49 0 97.5 -15t78.5 -42l158 55h14l-141 -612q-6 -25 -6 -37q0 -27 24 -27q18 0 44 24t53 62l43 -30q-63 -106 -123 -145.5t-131 -39.5q-68 0 -104 38t-36 110q0 35 11 86l16 72h-8q-66 -143 -140.5 -224.5t-166.5 -81.5 q-76 0 -129.5 62.5t-53.5 177.5zM397 905q0 -84 43 -84t99.5 74t106.5 185.5t75 213.5l10 47q-10 25 -31.5 38.5t-48.5 13.5q-70 0 -128 -83t-92 -199t-34 -206z" />
<glyph unicode="&#xab;" horiz-adv-x="1198" d="M141 537l4 14l545 414l62 -58l-377 -393l198 -389l-92 -57zM585 537l4 14l545 414l62 -58l-377 -393l198 -389l-92 -57z" />
<glyph unicode="&#xad;" horiz-adv-x="739" d="M70 492l53 227h584l-54 -227h-583z" />
<glyph unicode="&#xae;" horiz-adv-x="972" d="M160 1026q0 119 60.5 218t161.5 158.5t222 59.5t222.5 -59.5t162 -158.5t60.5 -218t-59.5 -219t-162 -159.5t-223.5 -59.5t-223 59.5t-161.5 159.5t-59.5 219zM248 1026q0 -96 47 -178t129 -130t180 -48t180 48t129.5 130t47.5 178t-48.5 178t-129.5 130t-179 48 t-179 -48t-129 -130t-48 -178zM403 801v35l11 2q14 4 21 12t7 27v315q0 18 -7 25.5t-21 11.5l-11 2v37h220q70 0 120 -34t50 -99q0 -94 -101 -125l68 -101q28 -41 39.5 -54t25.5 -17l9 -2v-35h-115q-14 20 -27 41l-35 51l-43 63q-14 23 -24 31t-29 8h-16v-118q0 -18 7 -26.5 t21 -12.5l13 -2v-35h-183zM545 1051h57q43 0 64.5 19.5t21.5 55.5q0 78 -94 78h-49v-153z" />
<glyph unicode="&#xaf;" horiz-adv-x="1228" d="M471 1241l41 174h619l-41 -174h-619z" />
<glyph unicode="&#xb0;" horiz-adv-x="681" d="M244 1260q0 109 78.5 183.5t191.5 74.5t191.5 -75t78.5 -183q0 -111 -78.5 -185t-191.5 -74t-191.5 74t-78.5 185zM362 1260q0 -63 44.5 -107.5t107.5 -44.5q66 0 109 44t43 108q0 66 -43 109.5t-109 43.5t-109 -44t-43 -109z" />
<glyph unicode="&#xb1;" d="M164 66v168h942v-168h-942zM164 717v168h377v387h188v-387h377v-168h-377v-387h-188v387h-377z" />
<glyph unicode="&#xb4;" horiz-adv-x="1228" d="M541 1149l203 364h317l-6 -28l-409 -336h-105z" />
<glyph unicode="&#xb6;" horiz-adv-x="1382" d="M197 961q0 219 147.5 346t407.5 127h766l-29 -127h-170l-348 -1512h-160l348 1512h-246l-348 -1512h-162l191 828h-19q-102 0 -188 38.5t-138 114.5t-52 185z" />
<glyph unicode="&#xb7;" horiz-adv-x="567" d="M110 574q0 76 54.5 130t132.5 54t134 -54t56 -130t-56 -130t-134 -54q-76 0 -131.5 54t-55.5 130z" />
<glyph unicode="&#xb8;" horiz-adv-x="1228" d="M268 -391l49 59q23 -16 61 -29.5t70 -13.5q98 0 99 70q0 45 -46.5 72.5t-107.5 35.5l129 205h102l-61 -96q63 -21 107.5 -70t44.5 -108q0 -96 -68 -145.5t-172 -49.5q-131 0 -207 70z" />
<glyph unicode="&#xba;" horiz-adv-x="802" d="M160 1012q0 119 64.5 223t168 166.5t213.5 62.5q86 0 159 -47t117 -129t44 -182q0 -119 -64.5 -223.5t-169 -167t-217.5 -62.5q-86 0 -157.5 47.5t-114.5 130t-43 181.5zM412 915q0 -88 18.5 -134t50.5 -46q54 0 98 74t69.5 184.5t25.5 214.5q0 172 -72 172 q-53 0 -96 -72.5t-68.5 -181t-25.5 -211.5z" />
<glyph unicode="&#xbb;" horiz-adv-x="1200" d="M4 125l377 393l-197 389l90 58l340 -469l-4 -15l-542 -413zM450 125l377 393l-197 389l90 58l340 -469l-4 -15l-542 -413z" />
<glyph unicode="&#xbc;" horiz-adv-x="1658" d="M129 645l12 57l23 3q57 4 94 17t45 48l105 451q4 20 4 26q0 14 -8.5 19.5t-28.5 5.5h-101l15 57q166 51 276 113h109l-156 -672q-8 -35 22.5 -48t84.5 -17l24 -3l-14 -57h-506zM198 0l1276 1434h182l-1275 -1434h-183zM924 160l28 137l465 492h183l-113 -488h98l-59 -141 h-72l-37 -160h-207l37 160h-323zM1049 301h231l72 316z" />
<glyph unicode="&#xbd;" horiz-adv-x="1783" d="M129 645l12 57l23 3q57 4 94 17t45 48l105 451q4 20 4 26q0 14 -8.5 19.5t-28.5 5.5h-101l15 57q166 51 276 113h109l-156 -672q-8 -35 22.5 -48t84.5 -17l24 -3l-14 -57h-506zM198 0l1276 1434h182l-1275 -1434h-183zM1024 0l14 53l127 119l55 51q141 131 196.5 200 t55.5 142q0 45 -28.5 70t-73.5 25q-47 0 -84 -24t-76 -69l-55 33q37 78 113.5 142.5t191.5 64.5t174 -58.5t59 -138.5t-49 -148.5t-118.5 -123.5t-188.5 -133l-59 -39h112q60 0 92.5 4t62 23.5t56.5 62.5h57l-88 -256h-546z" />
<glyph unicode="&#xbe;" horiz-adv-x="1665" d="M106 752q47 82 121 82q33 0 52.5 -15.5t31 -31t13.5 -19.5q31 -43 48 -58.5t46 -15.5q37 0 63.5 35t26.5 88q0 76 -62.5 132.5t-142.5 68.5l14 61q215 43 215 148q0 33 -24.5 57.5t-75.5 24.5q-55 0 -90 -20.5t-59 -53.5l-58 43q37 72 109 123t178 51t163.5 -46 t57.5 -116t-47 -119t-119 -79q66 -43 98.5 -92.5t32.5 -120.5q0 -111 -89 -181.5t-222 -70.5q-113 0 -184.5 40t-96.5 85zM205 0l1276 1434h182l-1275 -1434h-183zM931 160l28 137l465 492h183l-113 -488h98l-59 -141h-72l-37 -160h-207l37 160h-323zM1056 301h231l72 316z " />
<glyph unicode="&#xbf;" horiz-adv-x="858" d="M-129 -119q0 127 87 222.5t251 191.5q109 66 163 115t79 110l14 29h113v-43q0 -94 -16.5 -155.5t-55.5 -111t-117 -112.5q-115 -94 -169 -161.5t-54 -151.5q0 -68 28.5 -107t75.5 -39q45 0 72 35t59 107q31 66 64 88t88 22q59 0 110.5 -28.5t73.5 -67.5 q-55 -111 -174 -192t-295 -81q-113 0 -204 44.5t-142 119t-51 166.5zM362 854q0 76 55.5 130t133.5 54t133 -54t55 -130t-55 -130t-133 -54t-133.5 54t-55.5 130z" />
<glyph unicode="&#xc0;" horiz-adv-x="1490" d="M-104 0l20 92l23 4q59 10 106 50t102 128l740 1164h182l166 -1188q10 -80 43 -112t84 -42l18 -4l-20 -92h-653l20 92l33 4q76 10 109.5 37t33.5 84q0 20 -2 31l-20 153h-490l-94 -153q-33 -53 -33 -86q0 -29 24.5 -43.5t76.5 -22.5l30 -4l-20 -92h-479zM467 522h399 l-69 537zM723 1806l6 29h297l19 -287h-91z" />
<glyph unicode="&#xc1;" horiz-adv-x="1490" d="M-104 0l20 92l23 4q59 10 106 50t102 128l740 1164h182l166 -1188q10 -80 43 -112t84 -42l18 -4l-20 -92h-653l20 92l33 4q76 10 109.5 37t33.5 84q0 20 -2 31l-20 153h-490l-94 -153q-33 -53 -33 -86q0 -29 24.5 -43.5t76.5 -22.5l30 -4l-20 -92h-479zM467 522h399 l-69 537zM932 1548l186 287h334l-6 -29l-402 -258h-112z" />
<glyph unicode="&#xc2;" horiz-adv-x="1490" d="M-104 0l20 92l23 4q59 10 106 50t102 128l740 1164h182l166 -1188q10 -80 43 -112t84 -42l18 -4l-20 -92h-653l20 92l33 4q76 10 109.5 37t33.5 84q0 20 -2 31l-20 153h-490l-94 -153q-33 -53 -33 -86q0 -29 24.5 -43.5t76.5 -22.5l30 -4l-20 -92h-479zM467 522h399 l-69 537zM633 1548l264 287h286l127 -287h-127l-165 154l-248 -154h-137z" />
<glyph unicode="&#xc3;" horiz-adv-x="1490" d="M-104 0l20 92l23 4q59 10 106 50t102 128l740 1164h182l166 -1188q10 -80 43 -112t84 -42l18 -4l-20 -92h-653l20 92l33 4q76 10 109.5 37t33.5 84q0 20 -2 31l-20 153h-490l-94 -153q-33 -53 -33 -86q0 -29 24.5 -43.5t76.5 -22.5l30 -4l-20 -92h-479zM467 522h399 l-69 537zM651 1553q63 145 131 205.5t146 60.5q47 0 86 -13.5t94 -37.5q43 -20 72.5 -31.5t60.5 -11.5q84 0 133 94l80 -10q-61 -145 -129 -206t-147 -61q-47 0 -86 13.5t-95 38.5q-41 20 -72.5 31.5t-62.5 11.5q-45 0 -79.5 -27t-55.5 -68z" />
<glyph unicode="&#xc4;" horiz-adv-x="1490" d="M-104 0l20 92l23 4q59 10 106 50t102 128l740 1164h182l166 -1188q10 -80 43 -112t84 -42l18 -4l-20 -92h-653l20 92l33 4q76 10 109.5 37t33.5 84q0 20 -2 31l-20 153h-490l-94 -153q-33 -53 -33 -86q0 -29 24.5 -43.5t76.5 -22.5l30 -4l-20 -92h-479zM467 522h399 l-69 537zM627 1692q0 63 47 108t115 45q66 0 112.5 -45t46.5 -108t-47 -109.5t-112 -46.5q-68 0 -115 46t-47 110zM1092 1692q0 63 47 108t112 45q68 0 115 -45t47 -108t-47 -109.5t-115 -46.5q-65 0 -112 46t-47 110z" />
<glyph unicode="&#xc5;" horiz-adv-x="1490" d="M-104 0l20 92l23 4q59 10 106 50t102 128l740 1164h182l166 -1188q10 -80 43 -112t84 -42l18 -4l-20 -92h-653l20 92l33 4q76 10 109.5 37t33.5 84q0 20 -2 31l-20 153h-490l-94 -153q-33 -53 -33 -86q0 -29 24.5 -43.5t76.5 -22.5l30 -4l-20 -92h-479zM467 522h399 l-69 537zM776 1720q0 92 69.5 159t170.5 67q100 0 169.5 -67t69.5 -159q0 -94 -69.5 -159.5t-169.5 -65.5q-101 0 -170.5 65.5t-69.5 159.5zM895 1720q0 -51 34 -86t87 -35q51 0 86 35t35 86t-35 86t-86 35t-86 -34.5t-35 -86.5z" />
<glyph unicode="&#xc6;" horiz-adv-x="2048" d="M-119 0l23 92l20 4q68 12 120 46t112 118l643 909q55 80 55 117q0 41 -72 51l-32 4l22 93h1344l-86 -373h-97q-8 96 -31.5 147.5t-79 75t-161.5 23.5h-229l-117 -504h143q92 0 146.5 35.5t97.5 124.5h92l-108 -467h-93q-4 94 -39.5 137t-126.5 43h-143l-102 -445 q-4 -25 -4 -32q0 -41 30.5 -56.5t96.5 -15.5h102q121 0 194.5 25.5t130 90t126.5 191.5h104l-131 -434h-1196l20 92l33 4q63 8 102 33t52 82l43 190h-441l-116 -163q-41 -59 -41 -88q0 -43 75 -54l31 -4l-20 -92h-492zM530 522h383l183 797z" />
<glyph unicode="&#xc7;" horiz-adv-x="1392" d="M123 610q0 225 108.5 422t294 315.5t404.5 118.5q260 0 502 -118l-91 -383h-98q-12 188 -86 283t-203 95q-137 0 -242.5 -113.5t-162.5 -289.5t-57 -356q0 -123 41.5 -219.5t115.5 -151.5t166 -55q129 0 223.5 58t206.5 196l82 -50q-119 -207 -263 -301t-345 -94 q-29 0 -82 4l-39 -59q66 -23 109 -71t43 -107q0 -96 -68 -145.5t-172 -49.5q-131 0 -207 70l49 59q23 -16 61 -29.5t70 -13.5q98 0 99 70q0 45 -46.5 72.5t-107.5 35.5l117 187q-195 53 -308.5 219t-113.5 401z" />
<glyph unicode="&#xc8;" horiz-adv-x="1374" d="M-39 0l23 92l30 4q63 8 102.5 33t51.5 82l235 1012q4 25 5 30q0 41 -28 59.5t-79 24.5l-31 4l23 93h1151l-86 -373h-96q-6 96 -30 147.5t-80 75t-163 23.5h-231l-117 -504h143q94 0 147.5 35.5t96.5 124.5h94l-108 -467h-92q-4 94 -40 137t-126 43h-144l-102 -445 q-4 -25 -4 -32q0 -41 30.5 -56.5t96.5 -15.5h98q121 0 197 26.5t133 91t123 189.5h106l-131 -434h-1198zM682 1806l6 29h297l19 -287h-91z" />
<glyph unicode="&#xc9;" horiz-adv-x="1374" d="M-39 0l23 92l30 4q63 8 102.5 33t51.5 82l235 1012q4 25 5 30q0 41 -28 59.5t-79 24.5l-31 4l23 93h1151l-86 -373h-96q-6 96 -30 147.5t-80 75t-163 23.5h-231l-117 -504h143q94 0 147.5 35.5t96.5 124.5h94l-108 -467h-92q-4 94 -40 137t-126 43h-144l-102 -445 q-4 -25 -4 -32q0 -41 30.5 -56.5t96.5 -15.5h98q121 0 197 26.5t133 91t123 189.5h106l-131 -434h-1198zM891 1548l186 287h334l-6 -29l-402 -258h-112z" />
<glyph unicode="&#xca;" horiz-adv-x="1374" d="M-39 0l23 92l30 4q63 8 102.5 33t51.5 82l235 1012q4 25 5 30q0 41 -28 59.5t-79 24.5l-31 4l23 93h1151l-86 -373h-96q-6 96 -30 147.5t-80 75t-163 23.5h-231l-117 -504h143q94 0 147.5 35.5t96.5 124.5h94l-108 -467h-92q-4 94 -40 137t-126 43h-144l-102 -445 q-4 -25 -4 -32q0 -41 30.5 -56.5t96.5 -15.5h98q121 0 197 26.5t133 91t123 189.5h106l-131 -434h-1198zM594 1548l264 287h286l127 -287h-127l-165 154l-248 -154h-137z" />
<glyph unicode="&#xcb;" horiz-adv-x="1374" d="M-39 0l23 92l30 4q63 8 102.5 33t51.5 82l235 1012q4 25 5 30q0 41 -28 59.5t-79 24.5l-31 4l23 93h1151l-86 -373h-96q-6 96 -30 147.5t-80 75t-163 23.5h-231l-117 -504h143q94 0 147.5 35.5t96.5 124.5h94l-108 -467h-92q-4 94 -40 137t-126 43h-144l-102 -445 q-4 -25 -4 -32q0 -41 30.5 -56.5t96.5 -15.5h98q121 0 197 26.5t133 91t123 189.5h106l-131 -434h-1198zM586 1692q0 63 47 108t115 45q66 0 112.5 -45t46.5 -108t-47 -109.5t-112 -46.5q-68 0 -115 46t-47 110zM1051 1692q0 63 47 108t112 45q68 0 115 -45t47 -108 t-47 -109.5t-115 -46.5q-65 0 -112 46t-47 110z" />
<glyph unicode="&#xcc;" horiz-adv-x="827" d="M-31 0l23 92l31 4q66 8 103.5 33t49.5 82l236 1012q4 25 4 30q0 41 -28 59.5t-79 24.5l-30 4l22 93h653l-22 -93l-31 -4q-66 -8 -104.5 -32.5t-51.5 -81.5l-233 -1012q-4 -25 -4 -33q0 -39 26.5 -57.5t77.5 -24.5l31 -4l-20 -92h-654zM389 1806l6 29h297l19 -287h-91z " />
<glyph unicode="&#xcd;" horiz-adv-x="827" d="M-31 0l23 92l31 4q66 8 103.5 33t49.5 82l236 1012q4 25 4 30q0 41 -28 59.5t-79 24.5l-30 4l22 93h653l-22 -93l-31 -4q-66 -8 -104.5 -32.5t-51.5 -81.5l-233 -1012q-4 -25 -4 -33q0 -39 26.5 -57.5t77.5 -24.5l31 -4l-20 -92h-654zM598 1548l186 287h334l-6 -29 l-402 -258h-112z" />
<glyph unicode="&#xce;" horiz-adv-x="827" d="M-31 0l23 92l31 4q66 8 103.5 33t49.5 82l236 1012q4 25 4 30q0 41 -28 59.5t-79 24.5l-30 4l22 93h653l-22 -93l-31 -4q-66 -8 -104.5 -32.5t-51.5 -81.5l-233 -1012q-4 -25 -4 -33q0 -39 26.5 -57.5t77.5 -24.5l31 -4l-20 -92h-654zM299 1548l264 287h286l127 -287 h-127l-165 154l-248 -154h-137z" />
<glyph unicode="&#xcf;" horiz-adv-x="827" d="M-31 0l23 92l31 4q66 8 103.5 33t49.5 82l236 1012q4 25 4 30q0 41 -28 59.5t-79 24.5l-30 4l22 93h653l-22 -93l-31 -4q-66 -8 -104.5 -32.5t-51.5 -81.5l-233 -1012q-4 -25 -4 -33q0 -39 26.5 -57.5t77.5 -24.5l31 -4l-20 -92h-654zM293 1692q0 63 47 108t115 45 q66 0 112.5 -45t46.5 -108t-47 -109.5t-112 -46.5q-68 0 -115 46t-47 110zM758 1692q0 63 47 108t112 45q68 0 115 -45t47 -108t-47 -109.5t-115 -46.5q-65 0 -112 46t-47 110z" />
<glyph unicode="&#xd0;" horiz-adv-x="1583" d="M-39 0l23 92l30 4q66 8 104 33t50 82l108 465h-147l29 123h147l98 424q4 12 5 34q0 35 -26 53.5t-81 26.5l-31 4l23 93h684q176 0 307 -76t201.5 -213t70.5 -320q0 -223 -113.5 -412.5t-313 -301t-443.5 -111.5h-725zM506 197q0 -41 29.5 -55.5t91.5 -14.5h43 q157 0 275 108.5t180.5 279.5t62.5 351q0 207 -70.5 324t-214.5 117h-147l-117 -508h328l-29 -123h-326l-102 -445q-4 -29 -4 -34z" />
<glyph unicode="&#xd1;" horiz-adv-x="1587" d="M-45 0l22 92l25 4q70 12 110 39t56 101l227 987q4 12 4 34q0 39 -26.5 56.5t-77.5 23.5l-29 4l21 93h409l521 -908l151 660q6 31 6 55q0 49 -26.5 67.5t-77.5 28.5l-23 4l21 93h477l-21 -93l-28 -4q-68 -10 -108 -39.5t-58 -111.5l-275 -1188h-131l-604 1059l-190 -821 q-6 -27 -6 -48q0 -47 26.5 -65.5t77.5 -26.5l27 -4l-23 -92h-477zM680 1553q63 145 131 205.5t146 60.5q47 0 86 -13.5t94 -37.5q43 -20 72.5 -31.5t60.5 -11.5q84 0 133 94l80 -10q-61 -145 -129 -206t-147 -61q-47 0 -86 13.5t-95 38.5q-41 20 -72.5 31.5t-62.5 11.5 q-45 0 -79.5 -27t-55.5 -68z" />
<glyph unicode="&#xd2;" horiz-adv-x="1566" d="M123 616q0 211 105.5 408t292 319.5t411.5 122.5q178 0 315 -84t213 -231t76 -332q0 -215 -105.5 -412.5t-291 -318.5t-408.5 -121q-178 0 -316.5 84t-215 232.5t-76.5 332.5zM492 543q0 -205 60 -329t177 -124q121 0 221.5 122t158.5 309.5t58 375.5q0 205 -58 325.5 t-177 120.5t-220.5 -119.5t-160.5 -307t-59 -373.5zM705 1806l6 29h297l19 -287h-91z" />
<glyph unicode="&#xd3;" horiz-adv-x="1566" d="M123 616q0 211 105.5 408t292 319.5t411.5 122.5q178 0 315 -84t213 -231t76 -332q0 -215 -105.5 -412.5t-291 -318.5t-408.5 -121q-178 0 -316.5 84t-215 232.5t-76.5 332.5zM492 543q0 -205 60 -329t177 -124q121 0 221.5 122t158.5 309.5t58 375.5q0 205 -58 325.5 t-177 120.5t-220.5 -119.5t-160.5 -307t-59 -373.5zM914 1548l186 287h334l-6 -29l-402 -258h-112z" />
<glyph unicode="&#xd4;" horiz-adv-x="1566" d="M123 616q0 211 105.5 408t292 319.5t411.5 122.5q178 0 315 -84t213 -231t76 -332q0 -215 -105.5 -412.5t-291 -318.5t-408.5 -121q-178 0 -316.5 84t-215 232.5t-76.5 332.5zM492 543q0 -205 60 -329t177 -124q121 0 221.5 122t158.5 309.5t58 375.5q0 205 -58 325.5 t-177 120.5t-220.5 -119.5t-160.5 -307t-59 -373.5zM615 1548l264 287h286l127 -287h-127l-165 154l-248 -154h-137z" />
<glyph unicode="&#xd5;" horiz-adv-x="1566" d="M123 616q0 211 105.5 408t292 319.5t411.5 122.5q178 0 315 -84t213 -231t76 -332q0 -215 -105.5 -412.5t-291 -318.5t-408.5 -121q-178 0 -316.5 84t-215 232.5t-76.5 332.5zM492 543q0 -205 60 -329t177 -124q121 0 221.5 122t158.5 309.5t58 375.5q0 205 -58 325.5 t-177 120.5t-220.5 -119.5t-160.5 -307t-59 -373.5zM631 1553q63 145 131 205.5t146 60.5q47 0 86 -13.5t94 -37.5q43 -20 72.5 -31.5t60.5 -11.5q84 0 133 94l80 -10q-61 -145 -129 -206t-147 -61q-47 0 -86 13.5t-95 38.5q-41 20 -72.5 31.5t-62.5 11.5q-45 0 -79.5 -27 t-55.5 -68z" />
<glyph unicode="&#xd6;" horiz-adv-x="1566" d="M123 616q0 211 105.5 408t292 319.5t411.5 122.5q178 0 315 -84t213 -231t76 -332q0 -215 -105.5 -412.5t-291 -318.5t-408.5 -121q-178 0 -316.5 84t-215 232.5t-76.5 332.5zM492 543q0 -205 60 -329t177 -124q121 0 221.5 122t158.5 309.5t58 375.5q0 205 -58 325.5 t-177 120.5t-220.5 -119.5t-160.5 -307t-59 -373.5zM606 1692q0 63 47 108t115 45q66 0 112.5 -45t46.5 -108t-47 -109.5t-112 -46.5q-68 0 -115 46t-47 110zM1071 1692q0 63 47 108t112 45q68 0 115 -45t47 -108t-47 -109.5t-115 -46.5q-65 0 -112 46t-47 110z" />
<glyph unicode="&#xd7;" d="M180 328l332 331l-332 332l123 121l332 -330l330 330l122 -123l-329 -332l329 -327l-124 -125l-328 330l-330 -332z" />
<glyph unicode="&#xd8;" horiz-adv-x="1566" d="M88 0l174 186q-68 84 -103.5 195t-35.5 235q0 211 105.5 408t292 319.5t411.5 122.5q115 0 213 -34.5t174 -100.5l164 176l88 -73l-172 -187q68 -86 102.5 -194.5t34.5 -233.5q0 -215 -105.5 -412.5t-291 -318.5t-408.5 -121q-227 0 -391 137l-168 -180zM492 543 q0 -37 4 -103l645 697q-57 207 -209 206q-119 0 -220.5 -119.5t-160.5 -307t-59 -373.5zM520 299q27 -100 80 -154.5t129 -54.5q121 0 221.5 122t158.5 309.5t58 375.5q0 35 -4 96z" />
<glyph unicode="&#xd9;" horiz-adv-x="1566" d="M215 393q0 72 18 152l158 678q4 12 4 34q0 39 -26.5 56.5t-77.5 23.5l-31 4l23 93h649l-23 -93l-30 -4q-66 -8 -105 -32.5t-51 -81.5l-158 -701q-12 -61 -12 -112q0 -127 73.5 -193.5t198.5 -66.5q145 0 228.5 80.5t122.5 250.5l165 721q6 25 7 45q0 45 -27 62.5 t-80 27.5l-24 4l22 93h473l-22 -93l-27 -4q-68 -12 -107.5 -37.5t-56.5 -97.5l-168 -731q-53 -231 -199.5 -366.5t-377.5 -135.5q-271 0 -405 115t-134 309zM821 1806l6 29h297l19 -287h-91z" />
<glyph unicode="&#xda;" horiz-adv-x="1566" d="M215 393q0 72 18 152l158 678q4 12 4 34q0 39 -26.5 56.5t-77.5 23.5l-31 4l23 93h649l-23 -93l-30 -4q-66 -8 -105 -32.5t-51 -81.5l-158 -701q-12 -61 -12 -112q0 -127 73.5 -193.5t198.5 -66.5q145 0 228.5 80.5t122.5 250.5l165 721q6 25 7 45q0 45 -27 62.5 t-80 27.5l-24 4l22 93h473l-22 -93l-27 -4q-68 -12 -107.5 -37.5t-56.5 -97.5l-168 -731q-53 -231 -199.5 -366.5t-377.5 -135.5q-271 0 -405 115t-134 309zM1030 1548l186 287h334l-6 -29l-402 -258h-112z" />
<glyph unicode="&#xdb;" horiz-adv-x="1566" d="M215 393q0 72 18 152l158 678q4 12 4 34q0 39 -26.5 56.5t-77.5 23.5l-31 4l23 93h649l-23 -93l-30 -4q-66 -8 -105 -32.5t-51 -81.5l-158 -701q-12 -61 -12 -112q0 -127 73.5 -193.5t198.5 -66.5q145 0 228.5 80.5t122.5 250.5l165 721q6 25 7 45q0 45 -27 62.5 t-80 27.5l-24 4l22 93h473l-22 -93l-27 -4q-68 -12 -107.5 -37.5t-56.5 -97.5l-168 -731q-53 -231 -199.5 -366.5t-377.5 -135.5q-271 0 -405 115t-134 309zM732 1548l264 287h286l127 -287h-127l-165 154l-248 -154h-137z" />
<glyph unicode="&#xdc;" horiz-adv-x="1566" d="M215 393q0 72 18 152l158 678q4 12 4 34q0 39 -26.5 56.5t-77.5 23.5l-31 4l23 93h649l-23 -93l-30 -4q-66 -8 -105 -32.5t-51 -81.5l-158 -701q-12 -61 -12 -112q0 -127 73.5 -193.5t198.5 -66.5q145 0 228.5 80.5t122.5 250.5l165 721q6 25 7 45q0 45 -27 62.5 t-80 27.5l-24 4l22 93h473l-22 -93l-27 -4q-68 -12 -107.5 -37.5t-56.5 -97.5l-168 -731q-53 -231 -199.5 -366.5t-377.5 -135.5q-271 0 -405 115t-134 309zM725 1692q0 63 47 108t115 45q66 0 112.5 -45t46.5 -108t-47 -109.5t-112 -46.5q-68 0 -115 46t-47 110zM1190 1692 q0 63 47 108t112 45q68 0 115 -45t47 -108t-47 -109.5t-115 -46.5q-65 0 -112 46t-47 110z" />
<glyph unicode="&#xdd;" horiz-adv-x="1396" d="M205 1341l22 93h660l-23 -93l-37 -4q-66 -6 -100.5 -27.5t-34.5 -66.5q0 -16 10 -51l134 -422l325 414q41 53 41 88q0 51 -102 65l-31 4l23 93h505l-22 -93l-23 -4q-68 -12 -123 -51t-135 -137l-393 -490l-104 -448q-4 -25 -4 -33q0 -39 26.5 -57.5t77.5 -24.5l31 -4 l-23 -92h-651l22 92l31 4q66 8 104 33t50 82l94 407l-190 570q-27 80 -55.5 108.5t-84.5 40.5zM932 1548l186 287h334l-6 -29l-402 -258h-112z" />
<glyph unicode="&#xde;" horiz-adv-x="1376" d="M-39 0l23 92l30 4q66 8 104 33t50 82l235 1012q4 25 5 30q0 41 -28 59.5t-79 24.5l-31 4l23 93h653l-22 -93l-33 -4q-66 -8 -103.5 -32.5t-50.5 -81.5l-16 -72h172q135 0 246.5 -42t179 -127t67.5 -208q0 -139 -78.5 -244.5t-221 -163t-330.5 -57.5h-230l-22 -98 q-4 -25 -4 -33q0 -39 26.5 -57.5t77.5 -24.5l31 -4l-21 -92h-653zM555 436h156q161 0 243 99.5t82 255.5q0 123 -66.5 178t-172.5 55h-105z" />
<glyph unicode="&#xdf;" horiz-adv-x="1341" d="M-371 -303q25 47 62 73.5t82 26.5q37 0 58.5 -17.5t39.5 -53.5q23 -41 36 -56.5t36 -15.5q41 0 72.5 75.5t72.5 272.5l178 883h-147l24 104l152 39l12 64q43 211 200 323.5t372 112.5q119 0 205.5 -41t132 -106.5t45.5 -137.5q0 -61 -25 -103t-58.5 -69t-113.5 -82 q-88 -61 -119 -90t-31 -61q0 -27 26 -58.5t99 -105.5l78 -82q88 -90 122 -142.5t34 -123.5q0 -88 -48 -170t-137.5 -133.5t-205.5 -51.5q-123 0 -228.5 50.5t-146.5 150.5q25 45 65.5 72.5t83.5 27.5q41 0 63.5 -15t47.5 -50q6 -8 32.5 -50t58.5 -61.5t69 -19.5 q45 0 71.5 29.5t26.5 74.5t-25.5 84t-101.5 117l-82 86q-74 76 -103.5 123t-29.5 98q0 68 38 125t116 139q82 88 122.5 151.5t40.5 143.5q0 72 -35.5 118t-99.5 46q-82 0 -143 -69.5t-92 -217.5l-238 -1124q-49 -229 -174 -335.5t-305 -106.5q-104 0 -180 40t-105 99z" />
<glyph unicode="&#xe0;" horiz-adv-x="1241" d="M41 291q0 197 101.5 372t257 280.5t309.5 105.5q63 0 126.5 -20.5t106.5 -57.5l211 76h18l-188 -818q-6 -27 -6 -47q0 -39 33 -39q47 0 125 117l57 -43q-82 -141 -163 -193.5t-175 -52.5q-90 0 -138 51.5t-48 145.5q0 57 14 115l23 96h-13q-88 -193 -187 -300.5 t-222 -107.5q-100 0 -171 84t-71 236zM375 301q0 -113 59 -113q55 0 131 99.5t144.5 248t99.5 283.5l14 58q-14 37 -42.5 55t-63.5 18q-94 0 -172 -110.5t-124 -265t-46 -273.5zM508 1485l6 28h284l37 -364h-86z" />
<glyph unicode="&#xe1;" horiz-adv-x="1241" d="M41 291q0 197 101.5 372t257 280.5t309.5 105.5q63 0 126.5 -20.5t106.5 -57.5l211 76h18l-188 -818q-6 -27 -6 -47q0 -39 33 -39q47 0 125 117l57 -43q-82 -141 -163 -193.5t-175 -52.5q-90 0 -138 51.5t-48 145.5q0 57 14 115l23 96h-13q-88 -193 -187 -300.5 t-222 -107.5q-100 0 -171 84t-71 236zM375 301q0 -113 59 -113q55 0 131 99.5t144.5 248t99.5 283.5l14 58q-14 37 -42.5 55t-63.5 18q-94 0 -172 -110.5t-124 -265t-46 -273.5zM668 1149l203 364h317l-6 -28l-409 -336h-105z" />
<glyph unicode="&#xe2;" horiz-adv-x="1241" d="M41 291q0 197 101.5 372t257 280.5t309.5 105.5q63 0 126.5 -20.5t106.5 -57.5l211 76h18l-188 -818q-6 -27 -6 -47q0 -39 33 -39q47 0 125 117l57 -43q-82 -141 -163 -193.5t-175 -52.5q-90 0 -138 51.5t-48 145.5q0 57 14 115l23 96h-13q-88 -193 -187 -300.5 t-222 -107.5q-100 0 -171 84t-71 236zM375 301q0 -113 59 -113q55 0 131 99.5t144.5 248t99.5 283.5l14 58q-14 37 -42.5 55t-63.5 18q-94 0 -172 -110.5t-124 -265t-46 -273.5zM414 1149l287 364h293l112 -364h-104l-172 217l-299 -217h-117z" />
<glyph unicode="&#xe3;" horiz-adv-x="1241" d="M41 291q0 197 101.5 372t257 280.5t309.5 105.5q63 0 126.5 -20.5t106.5 -57.5l211 76h18l-188 -818q-6 -27 -6 -47q0 -39 33 -39q47 0 125 117l57 -43q-82 -141 -163 -193.5t-175 -52.5q-90 0 -138 51.5t-48 145.5q0 57 14 115l23 96h-13q-88 -193 -187 -300.5 t-222 -107.5q-100 0 -171 84t-71 236zM375 301q0 -113 59 -113q55 0 131 99.5t144.5 248t99.5 283.5l14 58q-14 37 -42.5 55t-63.5 18q-94 0 -172 -110.5t-124 -265t-46 -273.5zM403 1225q63 145 131 205.5t146 60.5q47 0 86 -13.5t94 -37.5q43 -20 72.5 -31.5t60.5 -11.5 q84 0 133 94l80 -10q-61 -145 -129 -206t-147 -61q-47 0 -86 13.5t-95 38.5q-41 20 -72.5 31.5t-62.5 11.5q-45 0 -79.5 -27t-55.5 -68z" />
<glyph unicode="&#xe4;" horiz-adv-x="1241" d="M41 291q0 197 101.5 372t257 280.5t309.5 105.5q63 0 126.5 -20.5t106.5 -57.5l211 76h18l-188 -818q-6 -27 -6 -47q0 -39 33 -39q47 0 125 117l57 -43q-82 -141 -163 -193.5t-175 -52.5q-90 0 -138 51.5t-48 145.5q0 57 14 115l23 96h-13q-88 -193 -187 -300.5 t-222 -107.5q-100 0 -171 84t-71 236zM375 301q0 -113 59 -113q55 0 131 99.5t144.5 248t99.5 283.5l14 58q-14 37 -42.5 55t-63.5 18q-94 0 -172 -110.5t-124 -265t-46 -273.5zM426 1339q0 63 47 108.5t115 45.5q66 0 112.5 -45t46.5 -109q0 -63 -47 -108t-112 -45 q-68 0 -115 45t-47 108zM846 1339q0 63 46 108.5t113 45.5q68 0 114 -45t46 -109q0 -63 -46 -108t-114 -45q-67 0 -113 45t-46 108z" />
<glyph unicode="&#xe5;" horiz-adv-x="1241" d="M41 291q0 197 101.5 372t257 280.5t309.5 105.5q63 0 126.5 -20.5t106.5 -57.5l211 76h18l-188 -818q-6 -27 -6 -47q0 -39 33 -39q47 0 125 117l57 -43q-82 -141 -163 -193.5t-175 -52.5q-90 0 -138 51.5t-48 145.5q0 57 14 115l23 96h-13q-88 -193 -187 -300.5 t-222 -107.5q-100 0 -171 84t-71 236zM375 301q0 -113 59 -113q55 0 131 99.5t144.5 248t99.5 283.5l14 58q-14 37 -42.5 55t-63.5 18q-94 0 -172 -110.5t-124 -265t-46 -273.5zM581 1378q0 92 69.5 159t170.5 67q100 0 169.5 -67t69.5 -159q0 -94 -69.5 -159.5 t-169.5 -65.5q-101 0 -170.5 65.5t-69.5 159.5zM700 1378q0 -51 34 -86t87 -35q51 0 86 35t35 86t-35 86t-86 35t-86 -34.5t-35 -86.5z" />
<glyph unicode="&#xe6;" horiz-adv-x="1501" d="M37 227q0 111 82 181.5t246 115.5l278 78l33 146q8 35 8 73q0 55 -23.5 89t-72.5 34q-43 0 -68.5 -28.5t-70.5 -112.5q-31 -63 -61 -83t-85 -20q-63 0 -112.5 41t-59.5 78q27 55 89.5 108.5t160.5 88.5t221 35q209 0 293 -105q143 104 305 105q123 0 203 -61.5t80 -158.5 q0 -160 -168 -248.5t-395 -113.5v-27q0 -123 50 -188.5t138 -65.5q68 0 128 38t120 116l63 -37q-156 -336 -444 -336q-104 0 -186 50.5t-130 136.5q-160 -180 -356 -181q-121 0 -193.5 71t-72.5 181zM342 295q0 -59 37 -101t98 -42q78 -1 152 73q-23 72 -23 148q0 70 15 133 l-123 -39q-82 -27 -119 -63.5t-37 -108.5zM928 561q141 27 221 98.5t80 188.5q0 96 -70 96q-76 0 -141.5 -113.5t-89.5 -269.5z" />
<glyph unicode="&#xe7;" horiz-adv-x="937" d="M59 379q0 158 78 314.5t214 257t298 100.5q109 0 194 -48.5t109 -130.5q-55 -123 -159 -122q-49 0 -70 21.5t-43 70.5q-25 55 -41 77.5t-49 22.5q-62 0 -112 -70.5t-77.5 -182t-27.5 -226.5q0 -139 53 -209t137 -70q61 0 121.5 38t130.5 134l66 -41q-166 -344 -453 -344 q-25 0 -37 2l-39 -61q66 -20 109 -68.5t43 -109.5q0 -96 -66.5 -145.5t-171.5 -49.5q-131 0 -207 70l50 59q23 -16 60.5 -29.5t70.5 -13.5q98 0 98 70q0 45 -46 72.5t-108 35.5l121 191q-109 43 -177.5 146.5t-68.5 238.5z" />
<glyph unicode="&#xe8;" horiz-adv-x="954" d="M59 373q0 164 80 321.5t217.5 257t296.5 99.5q123 0 203 -61.5t80 -155.5q0 -160 -168 -250t-395 -115v-27q0 -123 51 -188.5t137 -65.5q68 0 128.5 38t119.5 116l63 -37q-156 -336 -442 -336q-111 0 -194.5 53.5t-130 145.5t-46.5 205zM381 557q143 25 223 98.5 t80 192.5q0 43 -17.5 69.5t-52.5 26.5q-77 0 -144 -115.5t-89 -271.5zM406 1485l6 28h284l37 -364h-86z" />
<glyph unicode="&#xe9;" horiz-adv-x="954" d="M59 373q0 164 80 321.5t217.5 257t296.5 99.5q123 0 203 -61.5t80 -155.5q0 -160 -168 -250t-395 -115v-27q0 -123 51 -188.5t137 -65.5q68 0 128.5 38t119.5 116l63 -37q-156 -336 -442 -336q-111 0 -194.5 53.5t-130 145.5t-46.5 205zM381 557q143 25 223 98.5 t80 192.5q0 43 -17.5 69.5t-52.5 26.5q-77 0 -144 -115.5t-89 -271.5zM567 1149l203 364h317l-6 -28l-409 -336h-105z" />
<glyph unicode="&#xea;" horiz-adv-x="954" d="M59 373q0 164 80 321.5t217.5 257t296.5 99.5q123 0 203 -61.5t80 -155.5q0 -160 -168 -250t-395 -115v-27q0 -123 51 -188.5t137 -65.5q68 0 128.5 38t119.5 116l63 -37q-156 -336 -442 -336q-111 0 -194.5 53.5t-130 145.5t-46.5 205zM311 1149l287 364h293l112 -364 h-104l-172 217l-299 -217h-117zM381 557q143 25 223 98.5t80 192.5q0 43 -17.5 69.5t-52.5 26.5q-77 0 -144 -115.5t-89 -271.5z" />
<glyph unicode="&#xeb;" horiz-adv-x="954" d="M59 373q0 164 80 321.5t217.5 257t296.5 99.5q123 0 203 -61.5t80 -155.5q0 -160 -168 -250t-395 -115v-27q0 -123 51 -188.5t137 -65.5q68 0 128.5 38t119.5 116l63 -37q-156 -336 -442 -336q-111 0 -194.5 53.5t-130 145.5t-46.5 205zM324 1339q0 63 47 108.5t115 45.5 q66 0 112.5 -45t46.5 -109q0 -63 -47 -108t-112 -45q-68 0 -115 45t-47 108zM381 557q143 25 223 98.5t80 192.5q0 43 -17.5 69.5t-52.5 26.5q-77 0 -144 -115.5t-89 -271.5zM744 1339q0 63 46 108.5t113 45.5q68 0 114 -45t46 -109q0 -63 -46 -108t-114 -45q-67 0 -113 45 t-46 108z" />
<glyph unicode="&#xec;" horiz-adv-x="677" d="M104 166q0 57 15 117l106 465q6 25 6 43q0 35 -23.5 52t-80.5 34l18 77l443 93h18l-188 -818q-6 -27 -6 -47q0 -39 32 -39q49 0 127 117l58 -43q-84 -141 -165 -193.5t-175 -52.5q-90 0 -137.5 50.5t-47.5 144.5zM183 1485l6 28h284l37 -364h-86z" />
<glyph unicode="&#xed;" horiz-adv-x="677" d="M104 166q0 57 15 117l106 465q6 25 6 43q0 35 -23.5 52t-80.5 34l18 77l443 93h18l-188 -818q-6 -27 -6 -47q0 -39 32 -39q49 0 127 117l58 -43q-84 -141 -165 -193.5t-175 -52.5q-90 0 -137.5 50.5t-47.5 144.5zM342 1149l203 364h317l-6 -28l-409 -336h-105z" />
<glyph unicode="&#xee;" horiz-adv-x="677" d="M88 1149l287 364h293l112 -364h-104l-172 217l-299 -217h-117zM104 166q0 57 15 117l106 465q6 25 6 43q0 35 -23.5 52t-80.5 34l18 77l443 93h18l-188 -818q-6 -27 -6 -47q0 -39 32 -39q49 0 127 117l58 -43q-84 -141 -165 -193.5t-175 -52.5q-90 0 -137.5 50.5 t-47.5 144.5z" />
<glyph unicode="&#xef;" horiz-adv-x="677" d="M100 1339q0 63 47 108.5t115 45.5q66 0 112.5 -45t46.5 -109q0 -63 -47 -108t-112 -45q-68 0 -115 45t-47 108zM104 166q0 57 15 117l106 465q6 25 6 43q0 35 -23.5 52t-80.5 34l18 77l443 93h18l-188 -818q-6 -27 -6 -47q0 -39 32 -39q49 0 127 117l58 -43 q-84 -141 -165 -193.5t-175 -52.5q-90 0 -137.5 50.5t-47.5 144.5zM520 1339q0 63 46 108.5t113 45.5q68 0 114 -45t46 -109q0 -63 -46 -108t-114 -45q-67 0 -113 45t-46 108z" />
<glyph unicode="&#xf0;" horiz-adv-x="1161" d="M61 451q0 141 81 271t211 210t265 80q53 0 99.5 -19.5t73.5 -54.5q-6 131 -52 242l-315 -107l-10 90l288 99q-76 133 -192 202l55 64q188 -70 322 -205l243 84l15 -90l-197 -66q166 -223 166 -532q0 -205 -83 -376t-230.5 -271.5t-333.5 -100.5q-104 0 -198.5 60.5 t-151 170t-56.5 249.5zM391 328q0 -111 25.5 -178.5t79.5 -67.5q79 0 140.5 93t94.5 229.5t33 254.5q0 113 -29.5 177.5t-89.5 64.5q-70 0 -128 -92t-92 -227.5t-34 -253.5z" />
<glyph unicode="&#xf1;" horiz-adv-x="1265" d="M51 0l174 748q6 25 6 43q0 35 -23.5 52t-80.5 34l18 77l443 93h18l-90 -392h14q100 199 219 298.5t232 99.5q92 0 136 -51.5t44 -143.5q0 -63 -18 -141l-123 -488q-8 -27 -8 -47q0 -39 32 -39q25 0 53.5 28t73.5 89l56 -43q-84 -139 -166 -192.5t-176 -53.5 q-90 0 -136.5 50.5t-46.5 144.5q0 63 21 137l111 432q8 27 8 51q0 51 -43 52q-43 0 -117 -76t-152.5 -236.5t-134.5 -400.5l-28 -125h-316zM413 1225q63 145 131 205.5t146 60.5q47 0 86 -13.5t94 -37.5q43 -20 72.5 -31.5t60.5 -11.5q84 0 133 94l80 -10 q-61 -145 -129 -206t-147 -61q-47 0 -86 13.5t-95 38.5q-41 20 -72.5 31.5t-62.5 11.5q-45 0 -79.5 -27t-55.5 -68z" />
<glyph unicode="&#xf2;" horiz-adv-x="1148" d="M63 449q0 158 85 297t223.5 222t287.5 83q115 0 212.5 -62.5t154.5 -172t57 -243.5q0 -158 -86 -298t-224 -223t-288 -83q-112 0 -209.5 63.5t-155 173t-57.5 243.5zM397 315q0 -117 24.5 -176t72.5 -59q69 0 128.5 98t93.5 245.5t34 285.5q0 231 -97 231 q-70 0 -129 -97.5t-93 -243.5t-34 -284zM439 1485l6 28h284l37 -364h-86z" />
<glyph unicode="&#xf3;" horiz-adv-x="1148" d="M63 449q0 158 85 297t223.5 222t287.5 83q115 0 212.5 -62.5t154.5 -172t57 -243.5q0 -158 -86 -298t-224 -223t-288 -83q-112 0 -209.5 63.5t-155 173t-57.5 243.5zM397 315q0 -117 24.5 -176t72.5 -59q69 0 128.5 98t93.5 245.5t34 285.5q0 231 -97 231 q-70 0 -129 -97.5t-93 -243.5t-34 -284zM598 1149l203 364h317l-6 -28l-409 -336h-105z" />
<glyph unicode="&#xf4;" horiz-adv-x="1148" d="M63 449q0 158 85 297t223.5 222t287.5 83q115 0 212.5 -62.5t154.5 -172t57 -243.5q0 -158 -86 -298t-224 -223t-288 -83q-112 0 -209.5 63.5t-155 173t-57.5 243.5zM342 1149l287 364h293l112 -364h-104l-172 217l-299 -217h-117zM397 315q0 -117 24.5 -176t72.5 -59 q69 0 128.5 98t93.5 245.5t34 285.5q0 231 -97 231q-70 0 -129 -97.5t-93 -243.5t-34 -284z" />
<glyph unicode="&#xf5;" horiz-adv-x="1148" d="M63 449q0 158 85 297t223.5 222t287.5 83q115 0 212.5 -62.5t154.5 -172t57 -243.5q0 -158 -86 -298t-224 -223t-288 -83q-112 0 -209.5 63.5t-155 173t-57.5 243.5zM332 1225q63 145 131 205.5t146 60.5q47 0 86 -13.5t94 -37.5q43 -20 72.5 -31.5t60.5 -11.5 q84 0 133 94l80 -10q-61 -145 -129 -206t-147 -61q-47 0 -86 13.5t-95 38.5q-41 20 -72.5 31.5t-62.5 11.5q-45 0 -79.5 -27t-55.5 -68zM397 315q0 -117 24.5 -176t72.5 -59q69 0 128.5 98t93.5 245.5t34 285.5q0 231 -97 231q-70 0 -129 -97.5t-93 -243.5t-34 -284z" />
<glyph unicode="&#xf6;" horiz-adv-x="1148" d="M63 449q0 158 85 297t223.5 222t287.5 83q115 0 212.5 -62.5t154.5 -172t57 -243.5q0 -158 -86 -298t-224 -223t-288 -83q-112 0 -209.5 63.5t-155 173t-57.5 243.5zM354 1339q0 63 47 108.5t115 45.5q66 0 112.5 -45t46.5 -109q0 -63 -47 -108t-112 -45q-68 0 -115 45 t-47 108zM397 315q0 -117 24.5 -176t72.5 -59q69 0 128.5 98t93.5 245.5t34 285.5q0 231 -97 231q-70 0 -129 -97.5t-93 -243.5t-34 -284zM774 1339q0 63 46 108.5t113 45.5q68 0 114 -45t46 -109q0 -63 -46 -108t-114 -45q-67 0 -113 45t-46 108z" />
<glyph unicode="&#xf7;" d="M164 596v168h942v-168h-942zM459 319q0 68 51 118t125 50t125 -50t51 -118t-51 -118.5t-125 -50.5t-125 50t-51 119zM459 1036q0 68 51 118t125 50t125 -50t51 -118t-51 -119t-125 -51t-125 50.5t-51 119.5z" />
<glyph unicode="&#xf8;" horiz-adv-x="1148" d="M25 -2l137 143q-98 131 -99 308q0 158 85 297t223.5 222t287.5 83q150 0 267 -105l131 139l65 -63l-135 -143q96 -133 96 -306q0 -158 -86 -298t-224 -223t-288 -83q-152 0 -264 107l-133 -139zM399 262q4 -90 29 -136t66 -46q63 0 117.5 81t90 208t46.5 258zM399 393 l349 367q-8 180 -95 180q-63 0 -117.5 -81t-90 -208t-46.5 -258z" />
<glyph unicode="&#xf9;" horiz-adv-x="1292" d="M57 807q84 135 166 190.5t172 55.5t138.5 -51.5t48.5 -147.5q0 -59 -19 -133l-110 -432q-10 -37 -11 -56q0 -47 43 -47q39 0 108 73t142.5 228.5t130.5 389.5l35 147h316l-185 -795q-6 -27 -6 -47q0 -39 33 -39q45 0 127 117l57 -43q-84 -141 -165 -193.5t-175 -52.5 q-92 0 -139 51.5t-47 145.5q0 55 14 115l21 86h-13q-102 -199 -213.5 -298.5t-220.5 -99.5q-92 0 -136 51.5t-44 143.5q0 66 18 141l123 488q8 27 8 47q0 39 -32 39q-25 0 -53.5 -29t-73.5 -88zM492 1485l6 28h284l37 -364h-86z" />
<glyph unicode="&#xfa;" horiz-adv-x="1292" d="M57 807q84 135 166 190.5t172 55.5t138.5 -51.5t48.5 -147.5q0 -59 -19 -133l-110 -432q-10 -37 -11 -56q0 -47 43 -47q39 0 108 73t142.5 228.5t130.5 389.5l35 147h316l-185 -795q-6 -27 -6 -47q0 -39 33 -39q45 0 127 117l57 -43q-84 -141 -165 -193.5t-175 -52.5 q-92 0 -139 51.5t-47 145.5q0 55 14 115l21 86h-13q-102 -199 -213.5 -298.5t-220.5 -99.5q-92 0 -136 51.5t-44 143.5q0 66 18 141l123 488q8 27 8 47q0 39 -32 39q-25 0 -53.5 -29t-73.5 -88zM651 1149l203 364h317l-6 -28l-409 -336h-105z" />
<glyph unicode="&#xfb;" horiz-adv-x="1292" d="M57 807q84 135 166 190.5t172 55.5t138.5 -51.5t48.5 -147.5q0 -59 -19 -133l-110 -432q-10 -37 -11 -56q0 -47 43 -47q39 0 108 73t142.5 228.5t130.5 389.5l35 147h316l-185 -795q-6 -27 -6 -47q0 -39 33 -39q45 0 127 117l57 -43q-84 -141 -165 -193.5t-175 -52.5 q-92 0 -139 51.5t-47 145.5q0 55 14 115l21 86h-13q-102 -199 -213.5 -298.5t-220.5 -99.5q-92 0 -136 51.5t-44 143.5q0 66 18 141l123 488q8 27 8 47q0 39 -32 39q-25 0 -53.5 -29t-73.5 -88zM397 1149l287 364h293l112 -364h-104l-172 217l-299 -217h-117z" />
<glyph unicode="&#xfc;" horiz-adv-x="1292" d="M57 807q84 135 166 190.5t172 55.5t138.5 -51.5t48.5 -147.5q0 -59 -19 -133l-110 -432q-10 -37 -11 -56q0 -47 43 -47q39 0 108 73t142.5 228.5t130.5 389.5l35 147h316l-185 -795q-6 -27 -6 -47q0 -39 33 -39q45 0 127 117l57 -43q-84 -141 -165 -193.5t-175 -52.5 q-92 0 -139 51.5t-47 145.5q0 55 14 115l21 86h-13q-102 -199 -213.5 -298.5t-220.5 -99.5q-92 0 -136 51.5t-44 143.5q0 66 18 141l123 488q8 27 8 47q0 39 -32 39q-25 0 -53.5 -29t-73.5 -88zM410 1339q0 63 47 108.5t115 45.5q66 0 112.5 -45t46.5 -109q0 -63 -47 -108 t-112 -45q-68 0 -115 45t-47 108zM830 1339q0 63 46 108.5t113 45.5q68 0 114 -45t46 -109q0 -63 -46 -108t-114 -45q-67 0 -113 45t-46 108z" />
<glyph unicode="&#xfd;" horiz-adv-x="1024" d="M-197 -354q25 74 73 116.5t112 42.5q35 0 64.5 -10t35.5 -12q53 -23 90 -23q43 0 82 25t107 88l-191 819q-16 76 -31.5 109t-40 47t-84.5 29l17 77l352 93h19l196 -902q186 262 187 484q0 45 -18.5 79.5t-53.5 79.5q-29 37 -42 61.5t-13 53.5q0 57 51 99t147 51 q62 -33 90.5 -96.5t28.5 -141.5q0 -223 -173 -514t-417 -532q-111 -109 -200 -158t-195 -49q-63 0 -113.5 23.5t-79.5 60.5zM471 1149l203 364h317l-6 -28l-409 -336h-105z" />
<glyph unicode="&#xfe;" horiz-adv-x="1208" d="M-203 -430l21 88l26 4q59 10 88 34.5t41 84.5l328 1433q6 25 6 46q0 33 -23.5 50t-80.5 36l18 77l445 93h18l-201 -875h15q88 193 190.5 300.5t229.5 107.5q102 0 174.5 -83t72.5 -237q0 -199 -99 -374t-257 -279.5t-324 -104.5q-70 0 -151 23l-49 -213q-6 -31 -6 -51 q0 -33 15 -48.5t52 -19.5l31 -4l-21 -88h-559zM365 131q39 -61 114 -61q96 0 177 109.5t128 264t47 275.5q0 113 -67 112q-57 0 -136 -101t-148.5 -251.5t-100.5 -288.5z" />
<glyph unicode="&#xff;" horiz-adv-x="1024" d="M-197 -354q25 74 73 116.5t112 42.5q35 0 64.5 -10t35.5 -12q53 -23 90 -23q43 0 82 25t107 88l-191 819q-16 76 -31.5 109t-40 47t-84.5 29l17 77l352 93h19l196 -902q186 262 187 484q0 45 -18.5 79.5t-53.5 79.5q-29 37 -42 61.5t-13 53.5q0 57 51 99t147 51 q62 -33 90.5 -96.5t28.5 -141.5q0 -223 -173 -514t-417 -532q-111 -109 -200 -158t-195 -49q-63 0 -113.5 23.5t-79.5 60.5zM229 1339q0 63 47 108.5t115 45.5q66 0 112.5 -45t46.5 -109q0 -63 -47 -108t-112 -45q-68 0 -115 45t-47 108zM649 1339q0 63 46 108.5t113 45.5 q68 0 114 -45t46 -109q0 -63 -46 -108t-114 -45q-67 0 -113 45t-46 108z" />
<glyph unicode="&#x152;" horiz-adv-x="2144" d="M123 616q0 209 105.5 406t288.5 318.5t405 121.5q119 0 211 -28h1081l-86 -373h-98q-6 96 -29 147.5t-79 75t-163 23.5h-231l-117 -504h143q92 0 146.5 35.5t97.5 124.5h94l-108 -467h-94q-4 94 -39 137t-127 43h-142l-102 -445q-4 -25 -4 -32q0 -41 30.5 -56.5 t96.5 -15.5h98q121 0 196 26.5t133 91t124 189.5h106l-131 -434h-1018q-98 -25 -200 -25q-172 0 -306.5 83t-208 229.5t-73.5 328.5zM492 537q0 -195 60 -317t196 -122q88 0 178 58l243 1061q-90 125 -227 124q-131 0 -233.5 -116.5t-159.5 -303t-57 -384.5z" />
<glyph unicode="&#x153;" horiz-adv-x="1646" d="M63 449q0 158 85 297t223.5 222t287.5 83q92 0 175.5 -46.5t140.5 -127.5q78 82 173 128t200 46q121 0 200.5 -62.5t79.5 -157.5q0 -160 -168 -248.5t-395 -113.5v-27q0 -123 51 -188.5t137 -65.5q68 0 128.5 38t119.5 116l64 -37q-156 -336 -443 -336q-88 0 -158.5 38 t-115.5 108q-80 -70 -174 -108t-189 -38q-113 0 -210 63.5t-154.5 173t-57.5 243.5zM397 315q0 -117 24.5 -176t72.5 -59q69 0 128.5 98t93.5 245.5t34 285.5q0 231 -97 231q-70 0 -129 -97.5t-93 -243.5t-34 -284zM1073 561q141 27 221 98.5t80 188.5q0 96 -67 96 q-78 0 -143.5 -113.5t-90.5 -269.5z" />
<glyph unicode="&#x178;" horiz-adv-x="1396" d="M205 1341l22 93h660l-23 -93l-37 -4q-66 -6 -100.5 -27.5t-34.5 -66.5q0 -16 10 -51l134 -422l325 414q41 53 41 88q0 51 -102 65l-31 4l23 93h505l-22 -93l-23 -4q-68 -12 -123 -51t-135 -137l-393 -490l-104 -448q-4 -25 -4 -33q0 -39 26.5 -57.5t77.5 -24.5l31 -4 l-23 -92h-651l22 92l31 4q66 8 104 33t50 82l94 407l-190 570q-27 80 -55.5 108.5t-84.5 40.5zM627 1692q0 63 47 108t115 45q66 0 112.5 -45t46.5 -108t-47 -109.5t-112 -46.5q-68 0 -115 46t-47 110zM1092 1692q0 63 47 108t112 45q68 0 115 -45t47 -108t-47 -109.5 t-115 -46.5q-65 0 -112 46t-47 110z" />
<glyph unicode="&#x2c6;" horiz-adv-x="1228" d="M452 1149l287 364h293l112 -364h-104l-172 217l-299 -217h-117z" />
<glyph unicode="&#x2dc;" horiz-adv-x="1228" d="M395 1225q63 145 131 205.5t146 60.5q47 0 86 -13.5t94 -37.5q43 -20 72.5 -31.5t60.5 -11.5q84 0 133 94l80 -10q-61 -145 -129 -206t-147 -61q-47 0 -86 13.5t-95 38.5q-41 20 -72.5 31.5t-62.5 11.5q-45 0 -79.5 -27t-55.5 -68z" />
<glyph unicode="&#x2000;" horiz-adv-x="973" />
<glyph unicode="&#x2001;" horiz-adv-x="1946" />
<glyph unicode="&#x2002;" horiz-adv-x="973" />
<glyph unicode="&#x2003;" horiz-adv-x="1946" />
<glyph unicode="&#x2004;" horiz-adv-x="648" />
<glyph unicode="&#x2005;" horiz-adv-x="486" />
<glyph unicode="&#x2006;" horiz-adv-x="324" />
<glyph unicode="&#x2007;" horiz-adv-x="324" />
<glyph unicode="&#x2008;" horiz-adv-x="243" />
<glyph unicode="&#x2009;" horiz-adv-x="389" />
<glyph unicode="&#x200a;" horiz-adv-x="108" />
<glyph unicode="&#x2010;" horiz-adv-x="739" d="M70 492l53 227h584l-54 -227h-583z" />
<glyph unicode="&#x2011;" horiz-adv-x="739" d="M70 492l53 227h584l-54 -227h-583z" />
<glyph unicode="&#x2012;" horiz-adv-x="739" d="M70 492l53 227h584l-54 -227h-583z" />
<glyph unicode="&#x2013;" horiz-adv-x="1294" d="M76 518l43 174h1134l-41 -174h-1136z" />
<glyph unicode="&#x2014;" horiz-adv-x="2000" d="M76 518l43 174h1843l-43 -174h-1843z" />
<glyph unicode="&#x2018;" horiz-adv-x="530" d="M201 1047q0 109 59 201.5t162.5 149t228.5 56.5l-20 -94q-86 -4 -144.5 -39t-58.5 -90q0 -25 13.5 -44.5t39.5 -41.5q31 -31 46.5 -54.5t15.5 -58.5q0 -70 -45 -117t-123 -47t-126 52.5t-48 126.5z" />
<glyph unicode="&#x2019;" horiz-adv-x="528" d="M178 870l23 95q86 4 143 38.5t57 90.5q0 25 -13 44t-38 42q-31 31 -46 54t-15 60q0 70 44 116t122 46t127 -52t49 -126q0 -106 -60.5 -200.5t-164 -151t-228.5 -56.5z" />
<glyph unicode="&#x201a;" horiz-adv-x="534" d="M-109 -347l23 95q86 4 143 38.5t57 90.5q0 25 -13 44t-38 42q-31 31 -46 54t-15 60q0 70 44 116t122 46t127 -52t49 -126q0 -106 -60.5 -200.5t-164 -151t-228.5 -56.5z" />
<glyph unicode="&#x201c;" horiz-adv-x="989" d="M201 1047q0 109 59 201.5t162.5 149t228.5 56.5l-20 -94q-86 -4 -144.5 -39t-58.5 -90q0 -25 13.5 -44.5t39.5 -41.5q31 -31 46.5 -54.5t15.5 -58.5q0 -70 -45 -117t-123 -47t-126 52.5t-48 126.5zM662 1045q0 109 59 201.5t162.5 149t228.5 56.5l-20 -94 q-86 -4 -144.5 -39t-58.5 -90q0 -25 13.5 -44.5t39.5 -41.5q31 -31 46.5 -54.5t15.5 -58.5q0 -70 -45 -117t-123 -47t-126 52.5t-48 126.5z" />
<glyph unicode="&#x201d;" horiz-adv-x="989" d="M178 870l23 95q86 4 143 38.5t57 90.5q0 25 -13 44t-38 42q-31 31 -46 54t-15 60q0 70 44 116t122 46t127 -52t49 -126q0 -106 -60.5 -200.5t-164 -151t-228.5 -56.5zM639 870l23 95q86 4 143 38.5t57 90.5q0 25 -13 44t-38 42q-31 31 -46 54t-15 60q0 70 44 116t122 46 t127 -52t49 -126q0 -106 -60.5 -200.5t-164 -151t-228.5 -56.5z" />
<glyph unicode="&#x201e;" horiz-adv-x="983" d="M-94 -281l23 95q86 4 143 38.5t57 90.5q0 25 -13 44t-38 42q-31 31 -46 54t-15 60q0 70 44 116t122 46t127 -52t49 -126q0 -106 -60.5 -200.5t-164 -151t-228.5 -56.5zM352 -281l23 95q86 4 143 38.5t57 90.5q0 25 -13 44t-38 42q-31 31 -46 54t-15 60q0 70 44 116 t122 46t127 -52t49 -126q0 -106 -60.5 -200.5t-164 -151t-228.5 -56.5z" />
<glyph unicode="&#x2022;" horiz-adv-x="978" d="M182 676q0 92 47 171t126 126t173 47q92 0 171 -47t126 -126t47 -171q0 -94 -47 -173t-125.5 -126t-171.5 -47q-94 0 -173 47t-126 126t-47 173z" />
<glyph unicode="&#x2026;" horiz-adv-x="1726" d="M14 164q0 76 54.5 130t132.5 54t134 -54t56 -130t-56 -130t-134 -54q-76 0 -131.5 54t-55.5 130zM594 164q0 76 54.5 130t132.5 54t134 -54t56 -130t-56 -130t-134 -54q-76 0 -131.5 54t-55.5 130zM1175 164q0 76 54.5 130t132.5 54t134 -54t56 -130t-56 -130t-134 -54 q-76 0 -131.5 54t-55.5 130z" />
<glyph unicode="&#x202f;" horiz-adv-x="389" />
<glyph unicode="&#x2039;" horiz-adv-x="753" d="M141 537l4 14l545 414l62 -58l-377 -393l198 -389l-92 -57z" />
<glyph unicode="&#x203a;" horiz-adv-x="753" d="M4 125l377 393l-197 389l90 58l340 -469l-4 -15l-542 -413z" />
<glyph unicode="&#x205f;" horiz-adv-x="486" />
<glyph unicode="&#x20ac;" d="M80 573l26 113h123q12 78 23 115h-123l27 112h129q86 246 261 399.5t402 153.5q164 0 332 -82l-74 -364h-104q-4 176 -44 253t-124 77q-98 0 -177 -123t-128 -314h383l-54 -112h-356q-12 -57 -18 -115h327l-53 -113h-287q-2 -31 -2 -86q0 -305 203 -305q82 0 153.5 51.5 t147.5 161.5l82 -39q-96 -197 -232.5 -293t-289.5 -96q-197 0 -306.5 148.5t-109.5 398.5q0 39 2 59h-139z" />
<glyph unicode="&#x2122;" horiz-adv-x="1826" d="M227 1225l62 209h635l-33 -209h-55q-14 76 -38 108.5t-87 32.5h-21l-125 -541q-2 -6 -2 -16q0 -20 13.5 -28.5t35.5 -12.5l15 -2l-11 -49h-346l11 49l14 2q33 6 52.5 17.5t25.5 39.5l125 541h-23q-68 0 -106.5 -34t-83.5 -107h-58zM850 717l10 49l14 2q35 4 54.5 20.5 t27.5 57.5l111 479q2 6 2 16q0 20 -13.5 28.5t-37.5 12.5l-14 2l10 50h295l82 -453l292 453h291l-10 -50l-14 -2q-33 -6 -52.5 -17t-25.5 -40l-115 -500q-2 -6 -2 -16q0 -20 13.5 -28.5t37.5 -12.5l15 -2l-11 -49h-346l11 49l14 2q33 6 52.5 17.5t25.5 39.5l104 457 l-364 -565h-54l-104 573l-102 -444q-4 -25 -5 -31q0 -23 12.5 -33t35.5 -14l16 -2l-10 -49h-246z" />
<glyph unicode="&#x25fc;" horiz-adv-x="1044" d="M0 0v1044h1044v-1044h-1044z" />
</font>
</defs>
</svg>
