<?xml version="1.0" standalone="no"?>
<!DOCTYPE svg PUBLIC "-//W3C//DTD SVG 1.1//EN" "http://www.w3.org/Graphics/SVG/1.1/DTD/svg11.dtd" >
<svg xmlns="http://www.w3.org/2000/svg" xmlns:xlink="http://www.w3.org/1999/xlink" version="1.1">
<metadata></metadata>
<defs>
<font id="ivar_text_hydroregular" horiz-adv-x="1187" >
<font-face units-per-em="2048" ascent="1536" descent="-512" />
<missing-glyph horiz-adv-x="491" />
<glyph unicode="&#xfb01;" horiz-adv-x="1234" d="M37 901v64l166 49v92q0 141 63.5 234.5t163.5 137.5t213 44q152 0 240 -46t112 -98q-41 -78 -116 -78q-35 0 -59.5 14.5t-65.5 47.5q-43 37 -78 56.5t-86 19.5q-90 0 -142.5 -75t-52.5 -233v-122h527l110 22h19v-844q0 -61 21.5 -84.5t76.5 -29.5l37 -4v-68h-463v68l37 4 q55 6 76.5 29.5t21.5 84.5v609q0 51 -14.5 75.5t-63.5 30.5h-385v-715q0 -61 21.5 -84.5t77.5 -29.5l36 -4v-68h-462v68l36 4q55 6 77 29.5t22 84.5v715h-166z" />
<glyph unicode="&#xfb02;" horiz-adv-x="1224" d="M37 901v64l166 49v92q0 141 63.5 234.5t163.5 137.5t213 44q141 0 240 -47l139 41h18v-1330q0 -61 21.5 -84.5t77.5 -29.5l37 -4v-68h-463v68l37 4q55 6 76.5 29.5t21.5 84.5v1117q-100 135 -248 135q-94 0 -149.5 -75t-55.5 -233v-122h258l-26 -107h-232v-715 q0 -61 21.5 -84.5t77.5 -29.5l36 -4v-68h-462v68l36 4q55 6 77 29.5t22 84.5v715h-166z" />
<glyph horiz-adv-x="0" />
<glyph horiz-adv-x="682" />
<glyph unicode=" "  horiz-adv-x="491" />
<glyph unicode="&#x09;" horiz-adv-x="491" />
<glyph unicode="&#xa0;" horiz-adv-x="491" />
<glyph unicode="!" horiz-adv-x="647" d="M188 115q0 53 40 92t96 39q55 0 95 -39t40 -92t-40 -92t-95 -39q-56 0 -96 38.5t-40 92.5zM193 1333q0 55 35.5 92t93.5 37q57 0 93 -36.5t36 -92.5q0 -35 -13 -155l-88 -772h-57l-88 776q-12 115 -12 151z" />
<glyph unicode="&#x22;" horiz-adv-x="839" d="M115 1335q0 49 30.5 83t79.5 34t80 -34t31 -83q0 -37 -19 -123l-61 -299h-61l-62 299q-18 86 -18 123zM504 1335q0 49 30.5 83t79.5 34t80 -34t31 -83q0 -37 -19 -123l-61 -299h-61l-62 299q-18 86 -18 123z" />
<glyph unicode="#" d="M53 467v92h248l74 315h-225v93h245l109 467h100l-108 -467h309l108 467h101l-109 -467h228v-93h-248l-74 -315h225v-92h-245l-109 -467h-100l108 467h-309l-109 -467h-100l109 467h-228zM401 559h310l73 315h-309z" />
<glyph unicode="$" d="M129 90l12 406h74q31 -184 116 -299t228 -134v596l-27 11q-129 53 -210.5 104t-128 123t-46.5 174q0 109 52.5 195t146.5 137t213 59v148h92v-148q193 -8 342 -80l-8 -352h-74q-55 295 -260 338v-530l45 -19q205 -84 295 -174t90 -237q0 -117 -54 -212.5t-151.5 -154.5 t-224.5 -70v-182h-92v180q-125 6 -241.5 42t-188.5 79zM322 1135q0 -91 54 -147t183 -111v497q-102 -8 -169.5 -76.5t-67.5 -162.5zM651 61q113 11 181.5 88.5t68.5 196.5q0 96 -60.5 157.5t-189.5 117.5v-560z" />
<glyph unicode="%" horiz-adv-x="1802" d="M102 1094q0 106 49.5 189t129 129t168.5 46q88 0 167.5 -45t129 -127t49.5 -186t-49.5 -187.5t-129 -129.5t-167.5 -46q-89 0 -168.5 45t-129 126t-49.5 186zM279 1114q0 -143 48 -226t132 -83q67 0 113 73.5t46 202.5q0 145 -48 227.5t-132 82.5q-68 0 -113.5 -74 t-45.5 -203zM356 0l953 1434h135l-952 -1434h-136zM1008 334q0 106 49 189t129 129t168 46t168 -45t129 -127t49 -186t-49 -187t-129 -129.5t-168 -46.5t-168 45.5t-129 126t-49 185.5zM1184 354q0 -143 48 -226t132 -83q68 0 114 74t46 203q0 145 -48.5 227t-132.5 82 q-68 0 -113.5 -74t-45.5 -203z" />
<glyph unicode="&#x26;" horiz-adv-x="1445" d="M123 346q0 137 86 234.5t240 183.5q-106 125 -149.5 202.5t-43.5 163.5q0 84 49 160t134 123t188 47q104 0 187 -43t128 -112.5t45 -145.5q0 -123 -81 -210t-238 -167l368 -405q37 84 60 174q8 31 8 57q0 39 -21.5 58.5t-64.5 23.5l-37 4v76h414v-76l-35 -4 q-57 -6 -98 -42t-68 -113q-39 -119 -96 -226l39 -43q92 -102 148 -141t116 -49l24 -4v-72h-286q-47 39 -152 150q-160 -178 -401 -179q-147 0 -252 53.5t-158 139.5t-53 182zM324 383q0 -82 36.5 -153.5t111.5 -114.5t181 -43q74 0 145.5 34.5t133.5 106.5l-432 492 q-100 -72 -138 -150t-38 -172zM432 1182q0 -72 39 -148t145 -192q104 57 157.5 132t53.5 181q0 90 -57 155.5t-149 65.5q-84 0 -136.5 -55t-52.5 -139z" />
<glyph unicode="'" horiz-adv-x="450" d="M115 1335q0 49 30.5 83t79.5 34t80 -34t31 -83q0 -37 -19 -123l-61 -299h-61l-62 299q-18 86 -18 123z" />
<glyph unicode="(" horiz-adv-x="741" d="M147 631q0 213 69 407.5t174.5 339t215.5 219.5l60 -38q-145 -156 -236.5 -392.5t-91.5 -535.5t91 -535.5t237 -392.5l-60 -39q-110 76 -215.5 220.5t-174.5 339t-69 407.5z" />
<glyph unicode=")" horiz-adv-x="741" d="M76 -297q145 156 236 392.5t91 535.5t-91 535.5t-236 392.5l59 38q111 -75 216.5 -219.5t174 -339t68.5 -407.5t-68.5 -407.5t-174 -339t-216.5 -220.5z" />
<glyph unicode="*" horiz-adv-x="1028" d="M154 975q0 45 43 72q35 16 215 67l67 19q-256 74 -282 90q-20 10 -31.5 28.5t-11.5 40.5q0 23 12 41q25 43 72 43q20 0 43 -12q35 -20 219 -205q-68 260 -68 293q0 35 23.5 59.5t60.5 24.5q35 0 58.5 -24.5t23.5 -59.5q0 -37 -66 -289q182 182 216 201q23 12 43 12 q47 0 71 -43q12 -20 12 -41q0 -45 -43 -71q-31 -16 -284 -88q80 -18 172 -46t112 -40q43 -27 43 -72q0 -20 -12 -43q-25 -41 -69 -41q-23 0 -45 12q-31 20 -216 199q66 -252 66 -287t-23.5 -59.5t-58.5 -24.5q-37 0 -60.5 24.5t-23.5 59.5q0 33 68 291l-37 -37 q-27 -25 -94.5 -90.5t-87.5 -75.5q-23 -12 -45 -12q-45 0 -70 41q-12 23 -12 43z" />
<glyph unicode="+" d="M123 621v118h407v412h127v-412h408v-118h-408v-412h-127v412h-407z" />
<glyph unicode="," horiz-adv-x="499" d="M92 -225q72 12 118 55t46 96q0 27 -14.5 43.5t-44.5 38.5q-39 29 -58.5 52.5t-19.5 66.5q0 49 38 84t89 35q74 0 112.5 -52.5t38.5 -136.5q0 -80 -34.5 -157.5t-104.5 -132t-166 -62.5v70z" />
<glyph unicode="-" horiz-adv-x="788" d="M102 524v152h584v-152h-584z" />
<glyph unicode="." horiz-adv-x="499" d="M115 115q0 53 40 92t95 39t95 -39t40 -92t-40 -92t-95 -39t-95 38.5t-40 92.5z" />
<glyph unicode="/" horiz-adv-x="784" d="M-25 -307l652 1843h118l-651 -1843h-119z" />
<glyph unicode="0" horiz-adv-x="1232" d="M106 713q0 217 65 387t180.5 265t264.5 95q150 0 265.5 -94t180 -262t64.5 -383q0 -217 -64.5 -387t-180 -265.5t-265.5 -95.5q-149 0 -264.5 94.5t-180.5 262.5t-65 383zM326 737q0 -303 76.5 -488.5t228.5 -185.5q131 0 203.5 174.5t72.5 458.5q0 305 -76.5 489.5 t-228.5 184.5q-131 0 -203.5 -174t-72.5 -459z" />
<glyph unicode="1" horiz-adv-x="923" d="M117 0v68l45 4q80 6 125 16t74.5 37t29.5 78v891q0 53 -20.5 72.5t-83.5 19.5h-170v57q260 90 432 205h39v-1245q0 -51 29.5 -78t74.5 -37t123 -16l45 -4v-68h-743z" />
<glyph unicode="2" horiz-adv-x="1101" d="M51 0v49l144 162l45 51q207 231 301 348t144 220.5t50 209.5q0 127 -71.5 195t-186.5 68q-113 0 -188.5 -56.5t-138.5 -165.5l-66 37q49 137 157.5 240.5t299.5 103.5q123 0 214 -51t139 -138t48 -190q0 -121 -64.5 -239.5t-170 -234t-308.5 -312.5l-98 -96l-33 -33h363 q111 0 164 13.5t82.5 54t62.5 137.5h57l-45 -373h-901z" />
<glyph unicode="3" horiz-adv-x="1046" d="M47 182q23 41 60.5 66.5t78.5 25.5q33 0 57.5 -15t55.5 -58q55 -78 100 -112t127 -34q61 0 114.5 36t85.5 100.5t32 150.5q0 113 -60.5 192.5t-159 120.5t-208.5 43v68q78 18 160.5 62t141 116t58.5 166q0 98 -62.5 149.5t-172.5 51.5q-109 0 -181.5 -50.5t-126.5 -127.5 l-65 41q53 113 160.5 200.5t275.5 87.5q109 0 191 -41t126 -109.5t44 -148.5q0 -135 -88.5 -223t-196.5 -125q147 -39 248.5 -147.5t101.5 -253.5q0 -127 -62.5 -227.5t-166 -158t-219.5 -57.5q-168 0 -283 60.5t-166 150.5z" />
<glyph unicode="4" horiz-adv-x="1130" d="M86 334v133l625 967h170v-957h202l-36 -143h-166v-334h-191v334h-604zM209 477h481v748z" />
<glyph unicode="5" horiz-adv-x="1056" d="M37 182q27 45 63.5 68.5t77.5 23.5q31 0 56.5 -16t58.5 -59q55 -76 100 -110t119 -34q111 0 177.5 88t66.5 228q0 195 -153.5 295t-446.5 100l139 668h639l-37 -172h-543l-65 -324q211 -6 357.5 -73.5t221 -178.5t74.5 -252q0 -125 -60.5 -231.5t-167 -169t-237.5 -62.5 q-162 0 -277.5 62.5t-162.5 148.5z" />
<glyph unicode="6" horiz-adv-x="1169" d="M111 555q0 250 107.5 444.5t290.5 313.5t409 151l20 -61q-258 -98 -406.5 -246.5t-187.5 -404.5q47 66 126 106.5t177 40.5q119 0 215 -55.5t152.5 -156.5t56.5 -234q0 -125 -62.5 -236t-168 -177.5t-228.5 -66.5q-152 0 -265.5 76t-174.5 209t-61 297zM330 563 q0 -225 72.5 -362.5t211.5 -137.5q117 0 182.5 102.5t65.5 266.5q0 160 -74.5 253t-212.5 93q-80 0 -141 -26.5t-100 -71.5q-4 -74 -4 -117z" />
<glyph unicode="7" horiz-adv-x="1040" d="M100 1090l39 344h869v-54q-410 -618 -476 -1380h-227q37 272 184.5 618.5t352.5 643.5h-445q-76 0 -121 -19.5t-69.5 -55.5t-46.5 -97h-60z" />
<glyph unicode="8" horiz-adv-x="1144" d="M113 352q0 127 79.5 229.5t239.5 159.5q-258 160 -258 363q0 98 54.5 179t149.5 129t212 48q111 0 203 -45t144 -123t52 -172q0 -111 -75.5 -200t-196.5 -134q127 -79 194.5 -147t94 -131.5t26.5 -142.5q0 -106 -59.5 -196.5t-163.5 -143t-231 -52.5q-139 0 -245 51.5 t-163 138.5t-57 189zM297 373q0 -84 37 -156t103.5 -113t150.5 -41q125 0 193.5 73t68.5 183q0 102 -64.5 175t-203.5 157l-103 62q-98 -63 -140 -148.5t-42 -191.5zM352 1153q0 -78 47 -138.5t158 -127.5l111 -68q156 98 155 285q0 119 -68.5 192.5t-174.5 73.5 q-102 0 -165 -59.5t-63 -157.5z" />
<glyph unicode="9" horiz-adv-x="1169" d="M98 979q0 125 62.5 235.5t168 177t228.5 66.5q152 0 265.5 -75.5t175 -209t61.5 -296.5q0 -250 -107.5 -444.5t-291 -313.5t-408.5 -152l-21 62q258 98 406.5 246.5t187.5 404.5q-47 -66 -125.5 -107t-177.5 -41q-119 0 -215 55.5t-152.5 157t-56.5 234.5zM307 999 q0 -160 75 -253t212 -93q80 0 141.5 27t100.5 72q4 74 4 116q0 225 -73 362.5t-212 137.5q-117 0 -182.5 -102.5t-65.5 -266.5z" />
<glyph unicode=":" horiz-adv-x="589" d="M160 115q0 53 40 92t95 39t95 -39t40 -92t-40 -92t-95 -39t-95 38.5t-40 92.5zM160 883q0 53 40 92t95 39t95 -39t40 -92t-40 -92t-95 -39t-95 38.5t-40 92.5z" />
<glyph unicode=";" horiz-adv-x="589" d="M137 -225q72 12 118 55t46 96q0 27 -14.5 43.5t-44.5 38.5q-39 29 -58.5 52.5t-19.5 66.5q0 49 38 84t89 35q74 0 112.5 -52.5t38.5 -136.5q0 -80 -34.5 -157.5t-104.5 -132t-166 -62.5v70zM160 883q0 53 40 92t95 39t95 -39t40 -92t-40 -92t-95 -39t-95 38.5t-40 92.5z " />
<glyph unicode="&#x3c;" d="M123 623v114l942 301v-129l-758 -229l758 -229v-129z" />
<glyph unicode="=" d="M123 437v118h942v-118h-942zM123 805v118h942v-118h-942z" />
<glyph unicode="&#x3e;" d="M123 322v129l758 229l-758 229v129l942 -301v-114z" />
<glyph unicode="?" horiz-adv-x="933" d="M66 1202q14 61 65 121.5t140 99.5t208 39q125 0 217 -48t141.5 -129t49.5 -179q0 -78 -29 -142.5t-71 -112.5t-115 -118l-31 -28q-100 -94 -137 -144.5t-45 -105.5l-6 -49h-66l-6 40q-8 51 -8 103q0 72 28.5 124t106.5 138q10 12 66.5 73.5t82 121t25.5 122.5 q0 102 -55.5 174t-151.5 72q-70 0 -102.5 -39t-63.5 -112q-18 -45 -40.5 -65.5t-61.5 -20.5q-43 0 -81 18.5t-60 46.5zM295 115q0 53 40 92t95 39t95 -39t40 -92t-40 -92t-95 -39t-95 38.5t-40 92.5z" />
<glyph unicode="@" horiz-adv-x="1863" d="M82 436q0 274 130 486.5t344 328t460 115.5q207 0 383 -86t279.5 -244.5t103.5 -369.5q0 -168 -64.5 -304.5t-171 -215t-227.5 -78.5q-115 0 -186.5 68.5t-71.5 166.5q0 23 2 35q-57 -119 -145.5 -195.5t-184.5 -76.5t-163.5 76.5t-67.5 215.5q0 141 69.5 284.5 t188.5 237t258 93.5q129 0 184 -70l135 58h33l-133 -562q-14 -63 -14 -114q0 -78 33.5 -113t89.5 -35q84 0 154.5 74t111.5 193.5t41 252.5q0 188 -83 329.5t-227.5 217.5t-322.5 76q-211 0 -391 -105.5t-286.5 -298t-106.5 -440.5q0 -246 104 -398.5t265 -218t345 -65.5 q139 0 266 36t224 104l33 -58q-100 -84 -251 -129t-304 -45q-188 0 -380 74t-324 248t-132 452zM676 401q0 -102 33.5 -158.5t93.5 -56.5q106 0 204.5 177.5t157.5 429.5q-14 49 -52 78.5t-97 29.5q-94 0 -172 -73.5t-123 -189.5t-45 -237z" />
<glyph unicode="A" horiz-adv-x="1484" d="M18 0v72l29 4q55 8 91 44t69 113l508 1215h61l508 -1217q35 -82 66.5 -114.5t89.5 -40.5l26 -4v-72h-536v72l37 4q61 6 90.5 24.5t29.5 53.5q0 29 -14 63l-92 223h-563l-90 -223q-14 -35 -15 -61q0 -35 29 -54.5t86 -25.5l37 -4v-72h-447zM457 535h485l-246 593z" />
<glyph unicode="B" horiz-adv-x="1314" d="M94 0v72l37 4q63 6 98 31.5t35 82.5v1053q0 57 -34.5 83t-98.5 32l-37 4v72h594q199 0 329 -81t130 -253q0 -137 -84 -217t-211 -109q90 -8 176 -51t143.5 -125t57.5 -197q0 -199 -138.5 -300t-365.5 -101h-631zM465 190q0 -57 32.5 -76.5t100.5 -19.5h100q314 0 314 297 q0 164 -94.5 241t-249.5 77h-203v-519zM465 803h186q133 0 211 67.5t78 206.5q0 262 -301 262h-174v-536z" />
<glyph unicode="C" horiz-adv-x="1445" d="M98 709q0 221 93.5 393t255 267t360.5 95q123 0 247 -24.5t234 -75.5v-348h-76q-55 197 -158.5 276.5t-252.5 79.5q-143 0 -251 -76.5t-165 -217t-57 -322.5q0 -184 61.5 -332t180 -233t282.5 -85q133 0 243.5 69t204.5 228l70 -41q-170 -393 -573 -393 q-193 0 -352.5 93.5t-253 261.5t-93.5 385z" />
<glyph unicode="D" horiz-adv-x="1544" d="M94 0v72l37 4q63 6 98 31.5t35 82.5v1053q0 57 -34.5 83t-98.5 32l-37 4v72h643q207 0 368 -86t251 -248t90 -379q0 -219 -90 -382t-251 -251t-368 -88h-643zM465 190q0 -57 32.5 -76.5t100.5 -19.5h125q145 0 257 71t174.5 203t62.5 308q0 190 -61.5 340.5t-179.5 236.5 t-282 86h-229v-1149z" />
<glyph unicode="E" horiz-adv-x="1327" d="M94 0v72l37 4q63 6 98 31.5t35 82.5v1053q0 57 -34.5 83t-98.5 32l-37 4v72h1075v-342h-75q-23 96 -53.5 147t-88 75.5t-161.5 24.5h-326v-555h215q100 0 141 34t66 124h69v-430h-69q-25 96 -67 137t-140 41h-215v-500q0 -57 32.5 -76.5t100.5 -19.5h180q131 0 200 25.5 t109.5 89t81.5 194.5h76l-28 -403h-1123z" />
<glyph unicode="F" horiz-adv-x="1277" d="M94 0v72l37 4q63 6 98 31.5t35 82.5v1053q0 57 -34.5 83t-98.5 32l-37 4v72h1086v-351h-76q-27 98 -56.5 151.5t-87 79t-159.5 25.5h-336v-571h231q100 0 141.5 34t65.5 124h70v-426h-70q-25 94 -66.5 134t-140.5 40h-231v-484q0 -59 38 -81.5t124 -32.5l37 -4v-72h-570z " />
<glyph unicode="G" horiz-adv-x="1550" d="M98 713q0 219 99.5 390t268.5 266t370 95q123 0 249.5 -24.5t233.5 -75.5v-344h-76q-53 195 -162.5 273.5t-257.5 78.5q-145 0 -257.5 -77.5t-175 -217t-62.5 -319.5q0 -197 65.5 -355.5t187 -249t283.5 -90.5q166 0 291 87v337q0 59 -35 82t-108 31l-49 6v72h530v-72 l-35 -4q-53 -6 -77.5 -29.5t-24.5 -85.5v-376q-123 -72 -261.5 -107t-271.5 -35q-203 0 -367.5 93.5t-261 263.5t-96.5 387z" />
<glyph unicode="H" horiz-adv-x="1644" d="M94 0v72l37 4q63 6 98 31.5t35 82.5v1053q0 57 -34.5 83t-98.5 32l-37 4v72h541v-72l-37 -4q-63 -6 -98 -32t-35 -83v-452h715v452q0 57 -35 83t-98 32l-37 4v72h540v-72l-37 -4q-63 -6 -98 -32t-35 -83v-1053q0 -57 35 -82.5t98 -31.5l37 -4v-72h-540v72l37 4 q63 6 98 31.5t35 82.5v506h-715v-506q0 -57 35 -82.5t98 -31.5l37 -4v-72h-541z" />
<glyph unicode="I" horiz-adv-x="749" d="M104 0v72l37 4q63 6 98 31.5t35 82.5v1053q0 57 -34.5 83t-98.5 32l-37 4v72h541v-72l-37 -4q-63 -6 -98 -32t-35 -83v-1053q0 -57 35 -82.5t98 -31.5l37 -4v-72h-541z" />
<glyph unicode="J" horiz-adv-x="991" d="M20 131q23 47 62 74.5t84 27.5q37 0 60.5 -19t58.5 -64q39 -53 65.5 -77t75.5 -24q55 0 85 54.5t30 179.5v960q0 57 -35 83t-98 32l-37 4v72h540v-72l-37 -4q-63 -6 -98 -32t-35 -83v-909q0 -176 -110.5 -269.5t-274.5 -93.5q-131 0 -218 48.5t-118 111.5z" />
<glyph unicode="K" horiz-adv-x="1509" d="M94 0v72l37 4q63 6 98 31.5t35 82.5v1053q0 57 -34.5 83t-98.5 32l-37 4v72h541v-72l-37 -4q-63 -6 -98 -32t-35 -83v-555l510 508q69 69 69 110q0 50 -104 56v72h483v-72q-88 -10 -177 -67.5t-195 -164.5l-295 -290l452 -580q76 -96 125 -135t117 -49l29 -4v-72h-521v72 l35 4q63 6 64 41q0 27 -35 69l-401 523l-156 -154v-365q0 -57 35 -82.5t98 -31.5l37 -4v-72h-541z" />
<glyph unicode="L" horiz-adv-x="1288" d="M94 0v72l37 4q63 6 98 31.5t35 82.5v1053q0 57 -34.5 83t-98.5 32l-37 4v72h541v-72l-37 -4q-63 -6 -98 -32t-35 -83v-1053q0 -57 32.5 -76.5t100.5 -19.5h139q127 0 198 31t115 101.5t87 207.5h75l-32 -434h-1086z" />
<glyph unicode="M" horiz-adv-x="1970" d="M94 0v72l33 4q68 8 102.5 42t34.5 113v1012q0 57 -34.5 83t-98.5 32l-37 4v72h389l500 -1141l500 1141h393v-72l-37 -4q-63 -6 -98 -32t-35 -83v-1053q0 -57 35 -82.5t98 -31.5l37 -4v-72h-541v72l37 4q63 6 98 31.5t35 82.5v1006l-528 -1196h-70l-520 1190v-959 q0 -80 35 -113.5t102 -41.5l33 -4v-72h-463z" />
<glyph unicode="N" horiz-adv-x="1583" d="M88 0v72l33 4q68 8 102.5 42t34.5 113v1012q0 57 -35 83t-98 32l-37 4v72h326l809 -1033v801q0 80 -35 114t-103 42l-32 4v72h463v-72l-33 -4q-68 -8 -102.5 -42t-34.5 -114v-1212h-58l-907 1157v-916q0 -80 35 -113.5t102 -41.5l33 -4v-72h-463z" />
<glyph unicode="O" horiz-adv-x="1597" d="M98 713q0 219 93.5 390t253 266t354.5 95t354.5 -93t252.5 -263t93 -387q0 -219 -93 -390t-253 -266.5t-354 -95.5q-195 0 -354.5 93.5t-253 263.5t-93.5 387zM328 758q0 -193 58 -351.5t169 -252t258 -93.5q133 0 237.5 78t162 217.5t57.5 319.5q0 195 -57.5 353.5 t-168 250.5t-260.5 92q-133 0 -236.5 -77.5t-161.5 -217t-58 -319.5z" />
<glyph unicode="P" horiz-adv-x="1267" d="M94 0v72l37 4q63 6 98 31.5t35 82.5v1053q0 57 -34.5 83t-98.5 32l-37 4v72h615q125 0 237.5 -47.5t182 -140.5t69.5 -226q0 -139 -65.5 -235.5t-175 -144.5t-238.5 -48h-254v-402q0 -59 38 -81.5t124 -32.5l37 -4v-72h-570zM465 686h205q164 0 241.5 79t77.5 241 q0 170 -96 251.5t-236 81.5h-192v-653z" />
<glyph unicode="Q" horiz-adv-x="1597" d="M98 713q0 219 93.5 390t253 266t354.5 95t354.5 -93t252.5 -263t93 -387q0 -178 -62.5 -326.5t-175 -250t-255.5 -144.5l65 -47q92 -68 175 -100.5t173 -32.5h5q62 0 137 22v-51q-47 -39 -119 -64.5t-152 -25.5q-201 0 -385 141l-170 129q-180 16 -324.5 112.5 t-228.5 259.5t-84 370zM328 758q0 -193 58 -351.5t169 -252t258 -93.5q133 0 237.5 78t162 217.5t57.5 319.5q0 195 -57.5 353.5t-168 250.5t-260.5 92q-133 0 -236.5 -77.5t-161.5 -217t-58 -319.5z" />
<glyph unicode="R" horiz-adv-x="1394" d="M94 0v72l37 4q63 6 98 31.5t35 82.5v1053q0 57 -34.5 83t-98.5 32l-37 4v72h596q131 0 246 -38t187.5 -121t72.5 -212q0 -147 -100.5 -244.5t-257.5 -134.5l280 -395q84 -121 134.5 -163t111.5 -50l29 -4v-72h-299q-25 27 -74 93.5t-94 131.5l-228 334q-43 61 -67.5 79.5 t-65.5 18.5h-100v-467q0 -57 35 -82.5t98 -31.5l37 -4v-72h-541zM465 752h190q156 0 244 68.5t88 219.5q0 164 -103.5 231.5t-256.5 67.5h-162v-587z" />
<glyph unicode="S" horiz-adv-x="1204" d="M127 90l12 406h76q35 -203 137.5 -320t276.5 -117q129 0 212 79t83 208q0 102 -69 164.5t-220 122.5l-92 37q-133 53 -217 104t-132.5 123t-48.5 174q0 115 60.5 204t167 139t239.5 50q233 0 406 -82l-8 -352h-76q-68 344 -342 344q-115 0 -190.5 -69.5t-75.5 -169.5 q0 -96 65.5 -154.5t226.5 -124.5l93 -37q213 -84 305 -174t92 -237q0 -125 -63.5 -224.5t-177 -157t-259.5 -57.5q-139 0 -270 37t-211 84z" />
<glyph unicode="T" horiz-adv-x="1425" d="M72 1069l26 365h1229l27 -365h-76q-33 106 -68.5 161.5t-96 82t-167.5 26.5h-133v-1149q0 -57 35 -82.5t98 -31.5l37 -4v-72h-541v72l37 4q63 6 98 31.5t35 82.5v1149h-133q-106 0 -166.5 -26.5t-96.5 -81.5t-69 -162h-75z" />
<glyph unicode="U" horiz-adv-x="1542" d="M74 1362v72h551v-72l-35 -4q-68 -8 -107 -33t-39 -82v-733q0 -213 105.5 -313.5t275.5 -100.5q350 0 351 387v719q0 80 -35 114t-103 42l-32 4v72h462v-72l-32 -4q-68 -8 -103 -42t-35 -114v-729q0 -227 -130 -365.5t-382 -138.5q-274 0 -408 138.5t-134 384.5v751 q0 57 -35 83t-98 32z" />
<glyph unicode="V" horiz-adv-x="1497" d="M27 1362v72h536v-72l-37 -4q-63 -8 -94 -26.5t-31 -57.5q0 -18 15 -57l375 -912l370 912q16 43 17 65q0 35 -29 52.5t-88 23.5l-37 4v72h446v-72l-22 -4q-59 -10 -96 -44t-70 -114l-508 -1214h-61l-508 1216q-33 80 -66 113t-90 43z" />
<glyph unicode="W" horiz-adv-x="2109" d="M31 1362v72h524v-72l-37 -4q-66 -8 -97.5 -25.5t-31.5 -58.5q0 -23 12 -57l318 -895l282 776l-36 104q-29 80 -61 114t-95 42l-27 4v72h521v-72l-37 -4q-61 -8 -89 -24.5t-28 -53.5q0 -27 12 -63l303 -893l312 893q14 43 14 63q0 37 -27.5 53.5t-91.5 24.5l-35 4v72h443 v-72l-23 -4q-63 -10 -98 -44t-64 -112l-446 -1225h-57l-334 961l-355 -961h-57l-446 1225q-31 84 -57.5 112.5t-90.5 43.5z" />
<glyph unicode="X" horiz-adv-x="1517" d="M53 0v72l21 4q129 27 219 155l344 492l-311 446q-74 106 -116 145.5t-99 45.5l-23 2l2 72h549v-72l-39 -4q-115 -12 -115 -66q0 -29 31 -75l262 -383l271 383q36 52 36 80q0 52 -98 61l-39 4v72h479l-2 -72l-26 -4q-68 -10 -121 -48t-104 -108l-324 -444l371 -527 q51 -72 100 -106.5t121 -48.5l22 -4v-72h-557v72l39 4q96 12 96 59q0 31 -36 82l-299 418l-291 -418q-33 -45 -33 -78q0 -53 102 -63l41 -4v-72h-473z" />
<glyph unicode="Y" horiz-adv-x="1329" d="M27 1362v72h530v-72l-41 -4q-121 -12 -121 -72q0 -29 25 -69l287 -482l270 479q24 41 24 70q0 35 -30.5 51.5t-89.5 22.5l-41 4v72h463v-72l-23 -4q-59 -10 -102 -50t-93 -124l-315 -547v-447q0 -57 35 -82.5t98 -31.5l37 -4v-72h-541v72l37 4q63 6 98 31.5t35 82.5v420 l-356 592q-49 84 -80 115t-84 41z" />
<glyph unicode="Z" horiz-adv-x="1331" d="M66 0v61l931 1278h-458q-106 0 -165 -22.5t-94.5 -79.5t-78.5 -176h-76l29 373h1095v-62l-930 -1278h467q129 0 196 26.5t106.5 91t89.5 206.5h75l-28 -418h-1159z" />
<glyph unicode="[" horiz-adv-x="827" d="M287 -264v1802h448v-86h-272v-1630h272v-86h-448z" />
<glyph unicode="\" horiz-adv-x="784" d="M39 1536h119l651 -1843h-119z" />
<glyph unicode="]" horiz-adv-x="827" d="M92 -178h273v1630h-273v86h449v-1802h-449v86z" />
<glyph unicode="^" horiz-adv-x="1269" d="M102 532l476 902h114l475 -902h-129l-403 773l-404 -773h-129z" />
<glyph unicode="_" horiz-adv-x="1155" d="M-6 -195h1167v-102h-1167v102z" />
<glyph unicode="`" horiz-adv-x="1228" d="M444 1479v16h209l131 -344h-65z" />
<glyph unicode="a" horiz-adv-x="1042" d="M96 250q0 106 67.5 165.5t211.5 102.5l307 92v123q0 115 -50 174.5t-140 59.5q-68 0 -97.5 -35t-60.5 -129q-14 -43 -36 -58.5t-58 -15.5q-41 0 -76 19.5t-51 46.5q16 55 67 111.5t136 93t192 36.5q186 0 275 -85t89 -216v-540q0 -53 23 -77t70 -24q32 0 57 10v-38 q-33 -41 -82 -60.5t-96 -19.5q-78 0 -116 44t-44 109q-45 -68 -127 -115t-172 -47q-78 0 -143.5 35t-105.5 97.5t-40 140.5zM289 285q0 -76 49 -131.5t137 -55.5q62 0 118 29t89 70v327l-233 -73q-90 -29 -125 -65t-35 -101z" />
<glyph unicode="b" horiz-adv-x="1159" d="M29 1370v53l309 93h18v-623q45 57 121 96t178 39q119 0 214.5 -60.5t149.5 -174t54 -263.5q0 -164 -65.5 -288.5t-185.5 -194.5t-275 -70q-111 0 -214.5 25t-168.5 72v1169q0 41 -10.5 61.5t-38 34t-86.5 31.5zM356 137q80 -76 207 -76q144 0 222.5 107.5t78.5 325.5 q0 199 -84 307t-221 108q-119 0 -203 -75v-697z" />
<glyph unicode="c" horiz-adv-x="991" d="M82 489q0 154 65.5 279t178 195.5t245.5 70.5q119 0 199 -36.5t120 -87t50 -93.5q-20 -33 -52 -53.5t-69 -20.5q-35 0 -58.5 18.5t-45.5 59.5q-33 61 -69 94t-107 33q-68 0 -129.5 -41t-101.5 -129t-40 -219q0 -133 47 -228t125 -144.5t168 -49.5q96 0 170 47t137 135 l52 -30q-57 -150 -165 -231t-255 -81q-141 0 -246.5 66t-162 181.5t-56.5 264.5z" />
<glyph unicode="d" horiz-adv-x="1179" d="M86 477q0 162 67.5 287t188.5 195.5t279 70.5q104 0 182 -29v242q0 41 -10.5 61.5t-38 34t-86.5 31.5v53l309 93h18v-1295q0 -67 26 -89.5t109 -39.5v-57l-272 -49q-33 68 -45 141q-43 -61 -121 -104t-184 -43q-121 0 -217 60t-150.5 174t-54.5 263zM295 514 q0 -201 84 -308.5t227 -107.5q113 0 201 80q-4 61 -4 101v563q-72 100 -211 100t-218 -107.5t-79 -320.5z" />
<glyph unicode="e" horiz-adv-x="1015" d="M82 483q0 162 64.5 288t169 193.5t219.5 67.5q127 0 219 -55t138 -147.5t46 -198.5q0 -41 -2 -60h-674q2 -219 102.5 -327.5t245.5 -108.5q90 0 160 40t133 122l47 -31q-70 -147 -177 -219t-243 -72q-129 0 -231 62.5t-159.5 178.5t-57.5 267zM266 662h473 q-10 131 -67.5 208.5t-155.5 77.5q-92 0 -161.5 -75.5t-88.5 -210.5z" />
<glyph unicode="f" horiz-adv-x="696" d="M37 901v64l166 49v92q0 139 57 233.5t145.5 138.5t182.5 44q109 0 180.5 -37t95.5 -84q-41 -84 -121 -84q-33 0 -53 12t-47 41q-31 33 -56.5 50.5t-56.5 17.5q-74 0 -104.5 -77t-30.5 -251v-102h264l-26 -107h-238v-715q0 -43 11.5 -64.5t42 -32.5t96.5 -17l41 -4v-68 h-518v68l36 4q55 6 77 29.5t22 84.5v715h-166z" />
<glyph unicode="g" horiz-adv-x="1044" d="M31 -195q0 72 51 129.5t137 92.5q-113 47 -113 145q0 66 50.5 120t136.5 93q-88 45 -140.5 124t-52.5 175t53.5 176t141.5 126t186 46q106 0 197 -43h344l-27 -106h-198q84 -84 84 -201q0 -96 -54.5 -175t-144.5 -125t-193 -46q-80 0 -153 29q-35 -16 -57.5 -45 t-22.5 -66q0 -49 50 -72.5t169 -23.5h152q368 0 368 -223q0 -95 -68.5 -183t-194.5 -143t-288 -55q-186 0 -299.5 69.5t-113.5 181.5zM291 -296.5q94 -61.5 239 -61.5t226.5 61t81.5 150q0 66 -51.5 101.5t-188.5 35.5h-154q-100 0 -182 20q-65 -54 -65 -136 q0 -109 94 -170.5zM295 696q0 -121 58.5 -200.5t148.5 -79.5q84 0 134 70.5t50 181.5q0 123 -59.5 203.5t-149.5 80.5q-82 0 -132 -71.5t-50 -184.5z" />
<glyph unicode="h" horiz-adv-x="1210" d="M66 0v68l36 4q55 6 77 29.5t22 84.5v1057q0 41 -10.5 61.5t-38 34t-86.5 31.5v53l309 93h18v-654q49 72 138.5 123t193.5 51q152 0 228.5 -89t76.5 -210v-551q0 -61 21.5 -84.5t76.5 -29.5l37 -4v-68h-463v68l37 4q55 6 77 29.5t22 84.5v500q0 104 -54.5 162.5 t-146.5 58.5q-72 0 -134.5 -27.5t-109.5 -72.5v-621q0 -61 21.5 -84.5t77.5 -29.5l36 -4v-68h-462z" />
<glyph unicode="i" horiz-adv-x="585" d="M74 0v68l37 4q55 6 76.5 29.5t21.5 84.5v572q0 41 -10.5 61.5t-38 33.5t-86.5 32v53l309 92h18v-844q0 -61 21.5 -84.5t77.5 -29.5l37 -4v-68h-463zM170 1339q0 51 38 88t91 37t91 -36.5t38 -88.5q0 -49 -40 -87t-89 -38q-53 0 -91 37t-38 88z" />
<glyph unicode="j" horiz-adv-x="573" d="M-197 -334q18 35 48 59.5t69 24.5q31 0 51.5 -14.5t40.5 -40.5q33 -41 54.5 -59.5t50.5 -18.5q55 0 72.5 67.5t17.5 237.5v836q0 41 -10.5 61.5t-38 33.5t-86.5 32v53l309 92h18v-1102q0 -188 -94 -284.5t-239 -96.5q-101 0 -172.5 37t-90.5 82zM170 1339q0 51 38 88 t91 37t91 -36.5t38 -88.5q0 -49 -40 -87t-89 -38q-53 0 -91 37t-38 88z" />
<glyph unicode="k" horiz-adv-x="1167" d="M66 0v68l36 4q55 6 77 29.5t22 84.5v1057q0 41 -10.5 61.5t-38 34t-86.5 31.5v53l309 93h18v-994l299 281q68 61 68 98q0 29 -47 35l-29 4v68h412v-64q-133 -29 -340 -213l-113 -100l295 -398q61 -82 97 -114.5t95 -44.5l29 -6v-68h-432v68l23 2q25 4 36 10t11 20 q0 25 -33 70l-250 344l-121 -108v-220q0 -61 21.5 -84.5t77.5 -29.5l36 -4v-68h-462z" />
<glyph unicode="l" horiz-adv-x="577" d="M66 0v68l36 4q55 6 77 29.5t22 84.5v1057q0 41 -10.5 61.5t-38 34t-86.5 31.5v53l309 93h18v-1330q0 -61 21.5 -84.5t77.5 -29.5l36 -4v-68h-462z" />
<glyph unicode="m" horiz-adv-x="1789" d="M74 0v68l37 4q55 6 76.5 29.5t21.5 84.5v572q0 41 -10.5 61.5t-38 33.5t-86.5 32v53l303 92h18v-172q45 74 131 126t189 52q106 0 174.5 -52t97.5 -134q49 78 135 132t193 54q96 0 162.5 -44t99.5 -111.5t33 -143.5v-551q0 -61 21.5 -84.5t76.5 -29.5l37 -4v-68h-463v68 l37 4q55 6 76.5 29.5t21.5 84.5v508q0 102 -52 157.5t-140 55.5q-68 0 -126.5 -28.5t-99.5 -75.5q6 -33 7 -66v-551q0 -61 21.5 -84.5t76.5 -29.5l37 -4v-68h-463v68l37 4q55 6 76.5 29.5t21.5 84.5v508q0 102 -52 157.5t-140 55.5q-66 0 -121.5 -27.5t-98.5 -70.5v-623 q0 -61 21.5 -84.5t77.5 -29.5l37 -4v-68h-463z" />
<glyph unicode="n" horiz-adv-x="1214" d="M74 0v68l37 4q55 6 76.5 29.5t21.5 84.5v572q0 41 -10.5 61.5t-38 33.5t-86.5 32v53l303 92h18v-170q49 72 140.5 124t197.5 52q152 0 226.5 -88t74.5 -207v-555q0 -61 21.5 -84.5t77.5 -29.5l36 -4v-68h-462v68l36 4q55 6 77 29.5t22 84.5v504q0 104 -52.5 160.5 t-144.5 56.5q-72 0 -134 -27.5t-110 -72.5v-621q0 -61 21.5 -84.5t77.5 -29.5l37 -4v-68h-463z" />
<glyph unicode="o" horiz-adv-x="1171" d="M82 500q0 154 68.5 275.5t184.5 189t251 67.5t250.5 -65.5t184.5 -185t69 -273.5t-69 -275.5t-184.5 -189.5t-250.5 -68t-251 65.5t-184.5 185.5t-68.5 274zM295 545q0 -127 36 -237.5t104.5 -178.5t162.5 -68q135 0 207 111t72 291q0 137 -37 246.5t-106.5 173 t-160.5 63.5q-135 0 -206.5 -110.5t-71.5 -290.5z" />
<glyph unicode="p" horiz-adv-x="1193" d="M63 -362l37 4q55 6 77 29.5t22 84.5v1002q0 41 -10.5 61.5t-38 33.5t-87.5 32v53l306 92h18v-141q45 57 122 98t181 41q119 0 214 -61.5t149.5 -174t54.5 -262.5q0 -162 -66.5 -287.5t-184.5 -195.5t-267 -70q-109 0 -199 25v-246q0 -61 21.5 -84.5t76.5 -29.5l37 -4v-68 h-463v68zM391 156q78 -94 213 -95q137 0 216 107.5t79 325.5q0 197 -84 306t-223 109q-119 0 -201 -78v-675z" />
<glyph unicode="q" horiz-adv-x="1150" d="M86 477q0 162 67.5 287t188.5 195.5t276 70.5q125 0 222 -45l137 45h18v-1274q0 -61 21.5 -84.5t77.5 -29.5l36 -4v-68h-462v68l37 4q55 6 76.5 29.5t21.5 84.5v357q-45 -57 -121 -95t-176 -38q-121 0 -216 60t-149.5 173t-54.5 264zM295 514q0 -199 84 -307.5 t223 -108.5q117 0 201 76v668q-70 100 -213 100q-139 0 -217 -108.5t-78 -319.5z" />
<glyph unicode="r" horiz-adv-x="833" d="M74 0v68l37 4q55 6 76.5 29.5t21.5 84.5v572q0 41 -10.5 61.5t-38 33.5t-86.5 32v53l303 92h18v-244q35 96 102.5 169t159.5 73q54 0 102 -22.5t70 -51.5q-14 -55 -46.5 -94t-80.5 -39q-31 0 -75 19q-49 18 -78 18q-47 0 -86 -43t-62 -110v-519q0 -43 12.5 -64.5 t43 -32.5t96.5 -17l39 -4v-68h-518z" />
<glyph unicode="s" horiz-adv-x="921" d="M104 59l9 301h73q31 -135 105 -217t192 -82q92 0 145.5 47.5t53.5 127.5q0 70 -46 106.5t-153 77.5l-69 26q-106 41 -168 77t-95.5 86t-33.5 128q0 84 50 152.5t134 107.5t182 39q164 0 310 -57l-7 -254h-71q-57 225 -252 225q-78 0 -130 -43t-52 -110q0 -61 42 -97 t154 -82l68 -26q168 -66 236.5 -129.5t68.5 -177.5q0 -139 -105.5 -224.5t-271.5 -85.5q-108 0 -204.5 24t-164.5 60z" />
<glyph unicode="t" horiz-adv-x="722" d="M37 901v64q184 63 270 301h82v-258h285l-27 -107h-258v-645q0 -147 148 -147q78 0 151 32v-61q-49 -49 -114.5 -76t-133.5 -27q-116 0 -179.5 60.5t-63.5 181.5v682h-160z" />
<glyph unicode="u" horiz-adv-x="1181" d="M43 924v53l309 53h19v-698q0 -104 53 -167t162 -63q131 0 219 93q-2 20 -2 61v547q0 41 -10.5 61.5t-37 31.5t-87.5 28v53l309 53h18v-809q0 -67 26 -89.5t109 -39.5v-57l-272 -49q-33 57 -49 157q-41 -66 -124 -116t-183 -50q-158 0 -241 85t-83 243v498q0 41 -10 61.5 t-37 31.5t-88 28z" />
<glyph unicode="v" horiz-adv-x="1075" d="M16 940v68h457v-68l-39 -6q-51 -8 -74.5 -25.5t-23.5 -50.5q0 -37 31 -108l206 -502l201 489q33 86 33 121q0 33 -20.5 51.5t-63.5 24.5l-39 6v68h385v-68q-61 -12 -101 -59t-91 -166l-314 -725h-65l-308 721q-41 94 -63.5 137t-47 64.5t-63.5 27.5z" />
<glyph unicode="w" horiz-adv-x="1630" d="M16 940v68h457v-68l-39 -6q-51 -8 -73.5 -25.5t-22.5 -50.5q0 -35 29 -108l196 -500l205 485q-35 86 -59.5 128t-45 57.5t-51.5 19.5v68h441v-68l-39 -6q-49 -8 -71.5 -25.5t-22.5 -50.5q0 -41 26 -108l187 -498l196 485q33 82 33 119q0 35 -21.5 53.5t-64.5 24.5l-37 6 v68h385v-68q-63 -10 -102 -57t-90 -168l-306 -725h-67l-240 614l-266 -614h-68l-295 721q-39 96 -60 139t-47 64.5t-67 25.5z" />
<glyph unicode="x" horiz-adv-x="1093" d="M29 0v68q49 12 98 45.5t100 103.5l209 285l-217 297q-59 82 -92 107.5t-78 33.5v68h440v-68l-40 -6q-66 -12 -66 -43q0 -27 45 -86l145 -199l144 199q41 57 41 86q0 35 -58 43l-43 6v68h379v-68q-63 -8 -105 -41t-102 -111l-190 -251l238 -328q59 -80 97 -107.5t87 -33.5 v-68h-449v68l45 6q51 8 52 43q0 33 -41 86l-166 227l-162 -227q-33 -45 -33 -76q0 -41 74 -53l41 -6v-68h-393z" />
<glyph unicode="y" horiz-adv-x="1077" d="M16 -377q12 59 49 102.5t93 43.5q35 0 75 -13q31 -10 60 -10q33 0 55.5 21.5t49 75t75.5 171.5l8 19l-291 678q-41 94 -63.5 137t-47 64.5t-63.5 27.5v68h457v-68l-39 -6q-51 -8 -74.5 -25.5t-23.5 -50.5q0 -37 31 -108l206 -496l203 483q31 74 31 115q0 37 -21.5 56.5 t-62.5 25.5l-39 6v68h387v-68q-61 -12 -101 -58t-91 -167l-316 -731q-72 -166 -129 -255t-115.5 -126t-134.5 -37q-100 0 -168 57z" />
<glyph unicode="z" horiz-adv-x="1040" d="M84 0v49l623 871h-209q-98 0 -155.5 -21.5t-91.5 -75t-61 -155.5h-67l24 340h803v-50l-624 -870h245q94 0 149.5 27.5t91.5 85t71 166.5h67l-26 -367h-840z" />
<glyph unicode="{" horiz-adv-x="802" d="M102 598v78l48 4q59 6 90.5 44t45 125t13.5 245q0 172 41 269t115.5 136t189.5 39h66v-86h-43q-102 0 -147.5 -44t-45.5 -157v-198q0 -174 -50 -278.5t-181 -137.5q131 -33 181 -137.5t50 -278.5v-198q0 -113 45 -157t148 -44h43v-86h-66q-115 0 -189.5 39t-115.5 136 t-41 269q0 158 -13.5 245t-45 125t-90.5 44z" />
<glyph unicode="|" horiz-adv-x="675" d="M283 -291v1827h110v-1827h-110z" />
<glyph unicode="}" horiz-adv-x="802" d="M92 -178h43q102 0 147.5 44t45.5 157v198q0 174 50 278.5t181 137.5q-131 33 -181 137.5t-50 278.5v198q0 113 -45 157t-148 44h-43v86h66q114 0 189 -39t116 -136t41 -269q0 -158 13 -245t45 -125t91 -44l47 -4v-78l-47 -4q-59 -6 -91 -44t-45 -125t-13 -245 q0 -172 -41 -269t-116 -136t-189 -39h-66v86z" />
<glyph unicode="~" d="M143 569q27 129 98.5 195.5t166.5 66.5q49 0 102 -16t121 -45q63 -27 104 -39t76 -12q51 0 82 29.5t47 82.5h104q-27 -129 -98.5 -195.5t-165.5 -66.5q-49 0 -102 16.5t-121 45.5q-63 27 -104 39t-76 12q-51 0 -82 -29.5t-47 -83.5h-105z" />
<glyph unicode="&#xa1;" horiz-adv-x="610" d="M170 899q0 53 40 92t95 39t95 -39t40 -92t-40 -92t-95 -39t-95 39t-40 92zM178 -319q0 35 12 155l89 772h57l88 -776q12 -115 12 -151q0 -55 -35.5 -92.5t-93.5 -37.5q-57 0 -93 37t-36 93z" />
<glyph unicode="&#xa2;" horiz-adv-x="1069" d="M94 489q0 139 54.5 255t148.5 191t211 93v172h92v-166q113 -2 188.5 -40t113.5 -87t50 -90q-45 -70 -112 -69q-35 0 -58.5 18t-46.5 57q-27 49 -54.5 80t-80.5 43v-821h21q96 0 169.5 50t137.5 144l51 -30q-53 -137 -149.5 -218t-229.5 -91v-191h-92v191 q-190 18 -302 158.5t-112 350.5zM276 559q0 -166 63.5 -271.5t168.5 -142.5v803q-96 -16 -164 -114.5t-68 -274.5z" />
<glyph unicode="&#xa3;" d="M109 0v49q207 201 206 467q0 57 -8 135h-166v94h148l-13 46q-18 74 -27 125t-9 120q0 117 55 214.5t154.5 153.5t226.5 56q141 0 249.5 -65.5t143.5 -169.5q-51 -78 -133 -78q-37 0 -57.5 18.5t-42.5 61.5q-41 80 -74 113.5t-100 33.5q-98 0 -151.5 -89t-53.5 -210 q0 -90 8 -161.5t10 -82.5q8 -57 10 -86h353v-94h-346v-22q0 -150 -54.5 -265.5t-148.5 -195.5h424q111 0 164 13.5t82.5 54t62.5 137.5h57l-45 -373h-925z" />
<glyph unicode="&#xa4;" d="M154 264l174 174q-88 104 -88 242q0 135 86 242l-172 172l57 57l174 -174q102 84 240 84q137 0 239 -84l174 174l58 -57l-172 -172q86 -106 86 -242q0 -138 -88 -242l174 -174l-58 -57l-174 174q-104 -82 -239 -82t-240 82l-174 -174zM332 680q0 -80 39 -147.5 t106.5 -107.5t147.5 -40t147.5 40t106.5 107.5t39 147.5t-39 147.5t-106.5 107.5t-147.5 40t-147.5 -40t-106.5 -107.5t-39 -147.5z" />
<glyph unicode="&#xa5;" d="M14 1362v72h502v-72l-37 -4q-115 -12 -114 -74q0 -27 22 -67l240 -453l223 450q27 53 27 84q0 27 -21.5 40.5t-69.5 19.5l-36 4v72h415v-72l-22 -4q-104 -20 -185 -174l-229 -439h297v-94h-340v-143h340v-94h-340v-224q0 -57 35 -82.5t98 -31.5l37 -4v-72h-534v72l36 4 q63 6 98.5 31.5t35.5 82.5v224h-340v94h340v143h-340v94h286l-250 457q-80 143 -151 156z" />
<glyph unicode="&#xa6;" horiz-adv-x="675" d="M283 -287v776h110v-776h-110zM283 752v776h110v-776h-110z" />
<glyph unicode="&#xa7;" horiz-adv-x="1077" d="M141 528q0 113 73 202t192 140q-92 63 -138.5 122t-46.5 147q0 86 46 159.5t125 118.5t175 45q115 0 203 -50t113 -124q-16 -33 -45 -54.5t-64 -21.5q-31 0 -51.5 15.5t-44.5 52.5q-4 6 -26.5 41t-53.5 52.5t-72 17.5q-80 0 -123 -54.5t-43 -128.5q0 -63 40 -112 t120 -105l160 -106q131 -88 193.5 -163t62.5 -175q0 -113 -72.5 -202t-191.5 -140q92 -64 138 -122t46 -146q0 -86 -46 -160t-125 -119t-175 -45q-115 0 -203 50t-112 124q16 33 44.5 54.5t63.5 21.5q31 0 51.5 -15.5t44.5 -52.5q4 -6 27 -41t53.5 -52t71.5 -17q80 0 123 54 t43 128q0 63 -40 112.5t-120 104.5l-160 106q-131 88 -193.5 163t-62.5 175zM287 598q0 -80 48 -137.5t154 -130.5l142 -97q76 41 118 103.5t42 140.5q0 80 -48.5 137.5t-154.5 130.5l-142 97q-76 -41 -117.5 -103.5t-41.5 -140.5z" />
<glyph unicode="&#xa8;" horiz-adv-x="1228" d="M295 1341q0 49 37 84t86 35t86 -34.5t37 -84.5q0 -49 -37 -83.5t-86 -34.5t-86 34.5t-37 83.5zM691 1341q0 49 36.5 84t85.5 35t86 -34.5t37 -84.5q0 -49 -36.5 -83.5t-86.5 -34.5q-49 0 -85.5 34.5t-36.5 83.5z" />
<glyph unicode="&#xa9;" horiz-adv-x="1697" d="M98 717q0 203 100.5 373t273.5 270t378 100t377 -100t272 -271t100 -372q0 -203 -100 -374t-272 -271.5t-377 -100.5q-207 0 -379 100.5t-272.5 271.5t-100.5 374zM190 717q0 -180 89.5 -332t241 -242t329.5 -90t328.5 90t239.5 242t89 332q0 178 -89 330.5t-239.5 241.5 t-328.5 89t-329.5 -89t-241 -241.5t-89.5 -330.5zM410 705q0 137 63.5 243.5t170 164.5t228.5 58q164 0 297 -63v-238h-59q-35 115 -100.5 167.5t-149.5 52.5q-74 0 -138.5 -42t-103 -123t-38.5 -190q0 -164 87 -264t228 -100q166 0 268 155l58 -28q-51 -111 -141.5 -180.5 t-227.5 -69.5q-125 0 -225.5 57t-158.5 160.5t-58 239.5z" />
<glyph unicode="&#xaa;" horiz-adv-x="747" d="M47 874q0 80 51.5 125t157.5 76l229 68v94q0 86 -36.5 130t-102.5 44q-49 0 -69.5 -25.5t-45.5 -97.5q-12 -33 -28.5 -45t-44.5 -12q-33 0 -58.5 14.5t-40.5 34.5q10 43 50.5 85t103.5 70.5t145 28.5q143 0 211 -64.5t68 -162.5v-403q0 -39 16.5 -57.5t51.5 -18.5 q10 0 43 8v-31q-27 -31 -64 -45t-74 -14q-59 0 -87.5 31.5t-35.5 78.5q-35 -51 -95 -83.5t-128 -32.5q-90 0 -153.5 58t-63.5 146zM199 901q0 -57 35.5 -98t101.5 -41q43 0 84 20.5t65 48.5v248l-170 -55q-68 -20 -92 -47t-24 -76z" />
<glyph unicode="&#xab;" d="M143 512v10l412 428l70 -51l-291 -383l291 -383l-70 -51zM573 512v10l412 428l70 -51l-291 -383l291 -383l-70 -51z" />
<glyph unicode="&#xad;" horiz-adv-x="788" d="M102 524v152h584v-152h-584z" />
<glyph unicode="&#xae;" horiz-adv-x="937" d="M41 1040q0 113 58.5 209.5t156.5 153.5t213 57t213 -57t156.5 -153.5t58.5 -209.5t-57.5 -210t-156.5 -154.5t-214 -57.5t-214 57.5t-156.5 155t-57.5 209.5zM117 1040q0 -96 48 -177t129 -128t175 -47t175 47t129 128t48 177q0 94 -48 175t-129 129.5t-175 48.5 t-175 -48.5t-129 -129t-48 -175.5zM276 815v27l11 2q16 4 23 12t7 27v331q0 18 -7 25.5t-23 11.5l-11 2v29h207q72 0 119 -34t47 -99q0 -45 -26.5 -79t-75.5 -48l74 -111q22 -34 35.5 -49.5t29.5 -17.5l12 -2v-27h-116q-49 72 -58 88l-35 60q-16 29 -28 37t-33 8h-25v-125 q0 -18 7.5 -26.5t23.5 -12.5l12 -2v-27h-170zM403 1059h60q92 0 92 84q0 86 -98 86h-54v-170z" />
<glyph unicode="&#xaf;" horiz-adv-x="1228" d="M336 1268v121h557v-121h-557z" />
<glyph unicode="&#xb0;" horiz-adv-x="671" d="M82 1266q0 102 73.5 172.5t180.5 70.5q106 0 180 -70.5t74 -172.5q0 -104 -74 -174t-180 -70q-107 0 -180.5 69.5t-73.5 174.5zM178 1266q0 -68 46 -114t112 -46q65 0 111.5 46t46.5 114t-46.5 113.5t-111.5 45.5q-66 0 -112 -46t-46 -113z" />
<glyph unicode="&#xb1;" d="M123 91v118h942v-118h-942zM123 703v118h407v412h127v-412h408v-118h-408v-412h-127v412h-407z" />
<glyph unicode="&#xb4;" horiz-adv-x="1228" d="M444 1151l131 344h209v-16l-274 -328h-66z" />
<glyph unicode="&#xb6;" horiz-adv-x="1335" d="M98 1036q0 127 67.5 217t176.5 135.5t229 45.5h670v-95h-170v-1544h-123v1544h-246v-1544h-122v828h-19q-127 0 -232.5 46t-168 139t-62.5 228z" />
<glyph unicode="&#xb7;" horiz-adv-x="499" d="M115 525q0 53 40 92t95 39t95 -39t40 -92t-40 -92t-95 -39t-95 38.5t-40 92.5z" />
<glyph unicode="&#xb8;" horiz-adv-x="1228" d="M420 -401l29 53q57 -39 135 -39q45 0 71.5 19.5t26.5 62.5q0 47 -54 75.5t-130 32.5l84 205h78l-43 -106q82 -19 137 -63t55 -124t-56 -128t-146 -48q-66 0 -114 19.5t-73 40.5z" />
<glyph unicode="&#xba;" horiz-adv-x="847" d="M43 1063q0 115 52 207t139.5 143t189.5 51t189 -50t139.5 -140t52.5 -205t-52.5 -206t-139.5 -142t-189 -51t-189.5 49t-139.5 139t-52 205zM211 1098q0 -147 59.5 -255t161.5 -108q100 0 152.5 83t52.5 218q0 156 -61.5 258.5t-161.5 102.5q-98 0 -150.5 -82t-52.5 -217 z" />
<glyph unicode="&#xbb;" d="M133 133l291 383l-291 383l70 51l411 -428v-10l-411 -430zM563 133l291 383l-291 383l70 51l411 -428v-10l-411 -430z" />
<glyph unicode="&#xbc;" horiz-adv-x="1544" d="M100 645v53l27 2q57 4 92 17.5t35 48.5v463q0 29 -10.5 40t-42.5 11h-101v49q147 47 250 113h58v-676q0 -35 34.5 -48t92.5 -18l26 -2v-53h-461zM240 0l952 1434h135l-952 -1434h-135zM887 174v101l352 514h129v-510h111l-25 -105h-86v-174h-143v174h-338zM975 279h250 v364z" />
<glyph unicode="&#xbd;" horiz-adv-x="1632" d="M100 645v53l27 2q57 4 92 17.5t35 48.5v463q0 29 -10.5 40t-42.5 11h-101v49q147 47 250 113h58v-676q0 -35 34.5 -48t92.5 -18l26 -2v-53h-461zM240 0l952 1434h135l-952 -1434h-135zM987 0v37l97 109l51 57q96 109 136 159t62.5 97t22.5 100q0 63 -38 98t-99 35 t-102.5 -29.5t-75.5 -82.5l-47 26q29 76 95 137.5t181 61.5t178.5 -61.5t63.5 -153.5q0 -106 -89 -213t-268 -254h170q61 0 93 8t49.5 28.5t35.5 65.5h43l-28 -225h-531z" />
<glyph unicode="&#xbe;" horiz-adv-x="1585" d="M55 748q14 29 40 46t57 17q23 0 38 -10t35 -37q31 -39 54.5 -55.5t62.5 -16.5q47 0 81 36t34 97q0 88 -71 135.5t-167 53.5v57q72 16 132.5 58t60.5 108q0 49 -34 76.5t-93 27.5q-98 0 -162 -86l-45 31q33 66 95.5 115t164.5 49t160.5 -49t58.5 -119q0 -68 -45 -114 t-106 -68q81 -27 132.5 -86.5t51.5 -139.5q0 -106 -79 -175.5t-192 -69.5q-102 0 -168.5 33.5t-95.5 85.5zM281 0l952 1434h135l-952 -1434h-135zM928 174v101l352 514h129v-510h111l-25 -105h-86v-174h-143v174h-338zM1016 279h250v364z" />
<glyph unicode="&#xbf;" horiz-adv-x="811" d="M47 -94q0 78 28.5 142.5t70.5 112.5t116 118l31 28q100 94 137 144.5t45 105.5l6 49h66l6 -41q8 -51 8 -102q0 -72 -28.5 -124t-106.5 -138q-10 -12 -66.5 -73.5t-82 -121t-25.5 -123.5q0 -102 55 -173.5t152 -71.5q70 0 102.5 38.5t63.5 112.5q18 45 40.5 65.5 t61.5 20.5q43 0 81 -18.5t60 -46.5q-14 -61 -65 -122t-140.5 -100t-207.5 -39q-125 0 -217.5 48.5t-141.5 129t-49 179.5zM369 897q0 53 40 92t95 39t95 -39t40 -92t-40 -92t-95 -39t-95 39t-40 92z" />
<glyph unicode="&#xc0;" horiz-adv-x="1484" d="M18 0v72l29 4q55 8 91 44t69 113l508 1215h61l508 -1217q35 -82 66.5 -114.5t89.5 -40.5l26 -4v-72h-536v72l37 4q61 6 90.5 24.5t29.5 53.5q0 29 -14 63l-92 223h-563l-90 -223q-14 -35 -15 -61q0 -35 29 -54.5t86 -25.5l37 -4v-72h-447zM457 535h485l-246 593z M481 1802v17h209l131 -271h-65z" />
<glyph unicode="&#xc1;" horiz-adv-x="1484" d="M18 0v72l29 4q55 8 91 44t69 113l508 1215h61l508 -1217q35 -82 66.5 -114.5t89.5 -40.5l26 -4v-72h-536v72l37 4q61 6 90.5 24.5t29.5 53.5q0 29 -14 63l-92 223h-563l-90 -223q-14 -35 -15 -61q0 -35 29 -54.5t86 -25.5l37 -4v-72h-447zM457 535h485l-246 593z M669 1548l131 271h209v-17l-274 -254h-66z" />
<glyph unicode="&#xc2;" horiz-adv-x="1484" d="M18 0v72l29 4q55 8 91 44t69 113l508 1215h61l508 -1217q35 -82 66.5 -114.5t89.5 -40.5l26 -4v-72h-536v72l37 4q61 6 90.5 24.5t29.5 53.5q0 29 -14 63l-92 223h-563l-90 -223q-14 -35 -15 -61q0 -35 29 -54.5t86 -25.5l37 -4v-72h-447zM433 1548l206 271h215l207 -271 h-73l-240 154l-242 -154h-73zM457 535h485l-246 593z" />
<glyph unicode="&#xc3;" horiz-adv-x="1484" d="M18 0v72l29 4q55 8 91 44t69 113l508 1215h61l508 -1217q35 -82 66.5 -114.5t89.5 -40.5l26 -4v-72h-536v72l37 4q61 6 90.5 24.5t29.5 53.5q0 29 -14 63l-92 223h-563l-90 -223q-14 -35 -15 -61q0 -35 29 -54.5t86 -25.5l37 -4v-72h-447zM412 1587q37 117 88 167t117 50 q35 0 70.5 -13t82.5 -40q47 -23 73.5 -34t53.5 -11q78 0 113 101l67 -17q-37 -117 -88 -167t-116 -50q-35 0 -71 13.5t-83 39.5q-47 23 -73.5 34t-53.5 11q-78 0 -113 -100zM457 535h485l-246 593z" />
<glyph unicode="&#xc4;" horiz-adv-x="1484" d="M18 0v72l29 4q55 8 91 44t69 113l508 1215h61l508 -1217q35 -82 66.5 -114.5t89.5 -40.5l26 -4v-72h-536v72l37 4q61 6 90.5 24.5t29.5 53.5q0 29 -14 63l-92 223h-563l-90 -223q-14 -35 -15 -61q0 -35 29 -54.5t86 -25.5l37 -4v-72h-447zM399 1683q0 51 36 86t89 35 t89 -34.5t36 -86.5q0 -51 -36 -85.5t-89 -34.5t-89 34.5t-36 85.5zM457 535h485l-246 593zM839 1683q0 51 36 86t89 35t89 -34.5t36 -86.5q0 -51 -35.5 -85.5t-89.5 -34.5q-53 0 -89 34.5t-36 85.5z" />
<glyph unicode="&#xc5;" horiz-adv-x="1484" d="M18 0v72l29 4q55 8 91 44t69 113l508 1215h61l508 -1217q35 -82 66.5 -114.5t89.5 -40.5l26 -4v-72h-536v72l37 4q61 6 90.5 24.5t29.5 53.5q0 29 -14 63l-92 223h-563l-90 -223q-14 -35 -15 -61q0 -35 29 -54.5t86 -25.5l37 -4v-72h-447zM457 535h485l-246 593z M532 1708q0 84 62.5 144.5t150.5 60.5t150.5 -60.5t62.5 -144.5t-62.5 -144.5t-150.5 -60.5t-150.5 60.5t-62.5 144.5zM622 1708q0 -55 35 -90t88 -35q54 0 88.5 35t34.5 90t-34.5 90t-88.5 35q-53 0 -88 -35t-35 -90z" />
<glyph unicode="&#xc6;" horiz-adv-x="1961" d="M0 0v72l23 4q57 10 100 48t84 118l483 938q27 51 27 88q0 76 -113 90l-35 4v72h1235v-342h-75q-23 96 -53.5 147t-88 75.5t-162.5 24.5h-325v-555h215q100 0 141 34t66 124h69v-430h-69q-25 96 -67 137t-140 41h-215v-500q0 -57 32.5 -76.5t100.5 -19.5h180 q131 0 199.5 25.5t109.5 89t82 194.5h76l-29 -403h-1122v72l37 4q63 6 98 31.5t35 82.5v250h-453l-112 -223q-16 -31 -17 -57q0 -70 119 -84l33 -4v-72h-469zM494 535h405v800z" />
<glyph unicode="&#xc7;" horiz-adv-x="1445" d="M98 709q0 221 93.5 393t255 267t360.5 95q123 0 247 -24.5t234 -75.5v-348h-76q-55 197 -158.5 276.5t-252.5 79.5q-143 0 -251 -76.5t-165 -217t-57 -322.5q0 -184 61.5 -332t180 -233t282.5 -85q133 0 243.5 69t204.5 228l70 -41q-170 -393 -573 -393q-29 0 -43 2 l-27 -69q82 -18 137.5 -62.5t55.5 -124.5t-56.5 -128t-146.5 -48q-66 0 -114 19.5t-73 40.5l29 53q57 -39 135 -39q45 0 72 19.5t27 62.5q0 47 -54.5 75.5t-130.5 32.5l72 177q-166 27 -298 124t-208 253.5t-76 351.5z" />
<glyph unicode="&#xc8;" horiz-adv-x="1327" d="M94 0v72l37 4q63 6 98 31.5t35 82.5v1053q0 57 -34.5 83t-98.5 32l-37 4v72h1075v-342h-75q-23 96 -53.5 147t-88 75.5t-161.5 24.5h-326v-555h215q100 0 141 34t66 124h69v-430h-69q-25 96 -67 137t-140 41h-215v-500q0 -57 32.5 -76.5t100.5 -19.5h180q131 0 200 25.5 t109.5 89t81.5 194.5h76l-28 -403h-1123zM434 1802v17h209l131 -271h-65z" />
<glyph unicode="&#xc9;" horiz-adv-x="1327" d="M94 0v72l37 4q63 6 98 31.5t35 82.5v1053q0 57 -34.5 83t-98.5 32l-37 4v72h1075v-342h-75q-23 96 -53.5 147t-88 75.5t-161.5 24.5h-326v-555h215q100 0 141 34t66 124h69v-430h-69q-25 96 -67 137t-140 41h-215v-500q0 -57 32.5 -76.5t100.5 -19.5h180q131 0 200 25.5 t109.5 89t81.5 194.5h76l-28 -403h-1123zM622 1548l131 271h209v-17l-274 -254h-66z" />
<glyph unicode="&#xca;" horiz-adv-x="1327" d="M94 0v72l37 4q63 6 98 31.5t35 82.5v1053q0 57 -34.5 83t-98.5 32l-37 4v72h1075v-342h-75q-23 96 -53.5 147t-88 75.5t-161.5 24.5h-326v-555h215q100 0 141 34t66 124h69v-430h-69q-25 96 -67 137t-140 41h-215v-500q0 -57 32.5 -76.5t100.5 -19.5h180q131 0 200 25.5 t109.5 89t81.5 194.5h76l-28 -403h-1123zM385 1548l206 271h215l207 -271h-73l-240 154l-242 -154h-73z" />
<glyph unicode="&#xcb;" horiz-adv-x="1327" d="M94 0v72l37 4q63 6 98 31.5t35 82.5v1053q0 57 -34.5 83t-98.5 32l-37 4v72h1075v-342h-75q-23 96 -53.5 147t-88 75.5t-161.5 24.5h-326v-555h215q100 0 141 34t66 124h69v-430h-69q-25 96 -67 137t-140 41h-215v-500q0 -57 32.5 -76.5t100.5 -19.5h180q131 0 200 25.5 t109.5 89t81.5 194.5h76l-28 -403h-1123zM352 1683q0 51 36 86t89 35t89 -34.5t36 -86.5q0 -51 -36 -85.5t-89 -34.5t-89 34.5t-36 85.5zM792 1683q0 51 36 86t89 35t89 -34.5t36 -86.5q0 -51 -35.5 -85.5t-89.5 -34.5q-53 0 -89 34.5t-36 85.5z" />
<glyph unicode="&#xcc;" horiz-adv-x="749" d="M104 0v72l37 4q63 6 98 31.5t35 82.5v1053q0 57 -34.5 83t-98.5 32l-37 4v72h541v-72l-37 -4q-63 -6 -98 -32t-35 -83v-1053q0 -57 35 -82.5t98 -31.5l37 -4v-72h-541zM110 1802v17h209l131 -271h-65z" />
<glyph unicode="&#xcd;" horiz-adv-x="749" d="M104 0v72l37 4q63 6 98 31.5t35 82.5v1053q0 57 -34.5 83t-98.5 32l-37 4v72h541v-72l-37 -4q-63 -6 -98 -32t-35 -83v-1053q0 -57 35 -82.5t98 -31.5l37 -4v-72h-541zM299 1548l131 271h209v-17l-274 -254h-66z" />
<glyph unicode="&#xce;" horiz-adv-x="749" d="M62 1548l206 271h215l207 -271h-73l-240 154l-242 -154h-73zM104 0v72l37 4q63 6 98 31.5t35 82.5v1053q0 57 -34.5 83t-98.5 32l-37 4v72h541v-72l-37 -4q-63 -6 -98 -32t-35 -83v-1053q0 -57 35 -82.5t98 -31.5l37 -4v-72h-541z" />
<glyph unicode="&#xcf;" horiz-adv-x="749" d="M29 1683q0 51 36 86t89 35t89 -34.5t36 -86.5q0 -51 -36 -85.5t-89 -34.5t-89 34.5t-36 85.5zM104 0v72l37 4q63 6 98 31.5t35 82.5v1053q0 57 -34.5 83t-98.5 32l-37 4v72h541v-72l-37 -4q-63 -6 -98 -32t-35 -83v-1053q0 -57 35 -82.5t98 -31.5l37 -4v-72h-541z M469 1683q0 51 36 86t89 35t89 -34.5t36 -86.5q0 -51 -35.5 -85.5t-89.5 -34.5q-53 0 -89 34.5t-36 85.5z" />
<glyph unicode="&#xd0;" horiz-adv-x="1544" d="M84 690v92h180v461q0 57 -34.5 83t-98.5 32l-37 4v72h643q207 0 368 -86t251 -248t90 -379q0 -219 -90 -382t-251 -251t-368 -88h-643v72l37 4q63 6 98 31.5t35 82.5v500h-180zM465 190q0 -57 32.5 -76.5t100.5 -19.5h125q145 0 257 71t174.5 203t62.5 308 q0 190 -61.5 340.5t-179.5 236.5t-282 86h-229v-557h369v-92h-369v-500z" />
<glyph unicode="&#xd1;" horiz-adv-x="1583" d="M88 0v72l33 4q68 8 102.5 42t34.5 113v1012q0 57 -35 83t-98 32l-37 4v72h326l809 -1033v801q0 80 -35 114t-103 42l-32 4v72h463v-72l-33 -4q-68 -8 -102.5 -42t-34.5 -114v-1212h-58l-907 1157v-916q0 -80 35 -113.5t102 -41.5l33 -4v-72h-463zM477 1587q37 117 88 167 t117 50q35 0 70.5 -13t82.5 -40q47 -23 73.5 -34t53.5 -11q78 0 113 101l67 -17q-37 -117 -88 -167t-116 -50q-35 0 -71 13.5t-83 39.5q-47 23 -73.5 34t-53.5 11q-78 0 -113 -100z" />
<glyph unicode="&#xd2;" horiz-adv-x="1597" d="M98 713q0 219 93.5 390t253 266t354.5 95t354.5 -93t252.5 -263t93 -387q0 -219 -93 -390t-253 -266.5t-354 -95.5q-195 0 -354.5 93.5t-253 263.5t-93.5 387zM328 758q0 -193 58 -351.5t169 -252t258 -93.5q133 0 237.5 78t162 217.5t57.5 319.5q0 195 -57.5 353.5 t-168 250.5t-260.5 92q-133 0 -236.5 -77.5t-161.5 -217t-58 -319.5zM534 1802v17h209l131 -271h-65z" />
<glyph unicode="&#xd3;" horiz-adv-x="1597" d="M98 713q0 219 93.5 390t253 266t354.5 95t354.5 -93t252.5 -263t93 -387q0 -219 -93 -390t-253 -266.5t-354 -95.5q-195 0 -354.5 93.5t-253 263.5t-93.5 387zM328 758q0 -193 58 -351.5t169 -252t258 -93.5q133 0 237.5 78t162 217.5t57.5 319.5q0 195 -57.5 353.5 t-168 250.5t-260.5 92q-133 0 -236.5 -77.5t-161.5 -217t-58 -319.5zM723 1548l131 271h209v-17l-274 -254h-66z" />
<glyph unicode="&#xd4;" horiz-adv-x="1597" d="M98 713q0 219 93.5 390t253 266t354.5 95t354.5 -93t252.5 -263t93 -387q0 -219 -93 -390t-253 -266.5t-354 -95.5q-195 0 -354.5 93.5t-253 263.5t-93.5 387zM328 758q0 -193 58 -351.5t169 -252t258 -93.5q133 0 237.5 78t162 217.5t57.5 319.5q0 195 -57.5 353.5 t-168 250.5t-260.5 92q-133 0 -236.5 -77.5t-161.5 -217t-58 -319.5zM486 1548l206 271h215l207 -271h-73l-240 154l-242 -154h-73z" />
<glyph unicode="&#xd5;" horiz-adv-x="1597" d="M98 713q0 219 93.5 390t253 266t354.5 95t354.5 -93t252.5 -263t93 -387q0 -219 -93 -390t-253 -266.5t-354 -95.5q-195 0 -354.5 93.5t-253 263.5t-93.5 387zM328 758q0 -193 58 -351.5t169 -252t258 -93.5q133 0 237.5 78t162 217.5t57.5 319.5q0 195 -57.5 353.5 t-168 250.5t-260.5 92q-133 0 -236.5 -77.5t-161.5 -217t-58 -319.5zM465 1587q37 117 88 167t117 50q35 0 70.5 -13t82.5 -40q47 -23 73.5 -34t53.5 -11q78 0 113 101l67 -17q-37 -117 -88 -167t-116 -50q-35 0 -71 13.5t-83 39.5q-47 23 -73.5 34t-53.5 11 q-78 0 -113 -100z" />
<glyph unicode="&#xd6;" horiz-adv-x="1597" d="M98 713q0 219 93.5 390t253 266t354.5 95t354.5 -93t252.5 -263t93 -387q0 -219 -93 -390t-253 -266.5t-354 -95.5q-195 0 -354.5 93.5t-253 263.5t-93.5 387zM328 758q0 -193 58 -351.5t169 -252t258 -93.5q133 0 237.5 78t162 217.5t57.5 319.5q0 195 -57.5 353.5 t-168 250.5t-260.5 92q-133 0 -236.5 -77.5t-161.5 -217t-58 -319.5zM452 1683q0 51 36 86t89 35t89 -34.5t36 -86.5q0 -51 -36 -85.5t-89 -34.5t-89 34.5t-36 85.5zM892 1683q0 51 36 86t89 35t89 -34.5t36 -86.5q0 -51 -35.5 -85.5t-89.5 -34.5q-53 0 -89 34.5t-36 85.5z " />
<glyph unicode="&#xd7;" d="M160 315l346 347l-344 342l88 88l344 -342l344 344l90 -90l-344 -345l342 -344l-88 -88l-342 344l-346 -346z" />
<glyph unicode="&#xd8;" horiz-adv-x="1597" d="M98 713q0 219 93.5 390t253 266t354.5 95q215 0 387 -114l102 147l76 -51l-107 -152q115 -100 178.5 -247.5t63.5 -325.5q0 -219 -93 -390t-253 -266.5t-354 -95.5q-213 0 -387 113l-103 -148l-76 54l107 151q-115 100 -178.5 248t-63.5 326zM328 758q0 -135 29.5 -256 t84.5 -215l658 940q-129 145 -316 145q-133 0 -236.5 -77.5t-161.5 -217t-58 -319.5zM500 209q127 -147 313 -148q133 0 237.5 78t162 217.5t57.5 319.5q0 137 -29 258t-86 213z" />
<glyph unicode="&#xd9;" horiz-adv-x="1542" d="M74 1362v72h551v-72l-35 -4q-68 -8 -107 -33t-39 -82v-733q0 -213 105.5 -313.5t275.5 -100.5q350 0 351 387v719q0 80 -35 114t-103 42l-32 4v72h462v-72l-32 -4q-68 -8 -103 -42t-35 -114v-729q0 -227 -130 -365.5t-382 -138.5q-274 0 -408 138.5t-134 384.5v751 q0 57 -35 83t-98 32zM561 1802v17h209l131 -271h-65z" />
<glyph unicode="&#xda;" horiz-adv-x="1542" d="M74 1362v72h551v-72l-35 -4q-68 -8 -107 -33t-39 -82v-733q0 -213 105.5 -313.5t275.5 -100.5q350 0 351 387v719q0 80 -35 114t-103 42l-32 4v72h462v-72l-32 -4q-68 -8 -103 -42t-35 -114v-729q0 -227 -130 -365.5t-382 -138.5q-274 0 -408 138.5t-134 384.5v751 q0 57 -35 83t-98 32zM749 1548l131 271h209v-17l-274 -254h-66z" />
<glyph unicode="&#xdb;" horiz-adv-x="1542" d="M74 1362v72h551v-72l-35 -4q-68 -8 -107 -33t-39 -82v-733q0 -213 105.5 -313.5t275.5 -100.5q350 0 351 387v719q0 80 -35 114t-103 42l-32 4v72h462v-72l-32 -4q-68 -8 -103 -42t-35 -114v-729q0 -227 -130 -365.5t-382 -138.5q-274 0 -408 138.5t-134 384.5v751 q0 57 -35 83t-98 32zM512 1548l206 271h215l207 -271h-73l-240 154l-242 -154h-73z" />
<glyph unicode="&#xdc;" horiz-adv-x="1542" d="M74 1362v72h551v-72l-35 -4q-68 -8 -107 -33t-39 -82v-733q0 -213 105.5 -313.5t275.5 -100.5q350 0 351 387v719q0 80 -35 114t-103 42l-32 4v72h462v-72l-32 -4q-68 -8 -103 -42t-35 -114v-729q0 -227 -130 -365.5t-382 -138.5q-274 0 -408 138.5t-134 384.5v751 q0 57 -35 83t-98 32zM479 1683q0 51 36 86t89 35t89 -34.5t36 -86.5q0 -51 -36 -85.5t-89 -34.5t-89 34.5t-36 85.5zM919 1683q0 51 36 86t89 35t89 -34.5t36 -86.5q0 -51 -35.5 -85.5t-89.5 -34.5q-53 0 -89 34.5t-36 85.5z" />
<glyph unicode="&#xdd;" horiz-adv-x="1329" d="M27 1362v72h530v-72l-41 -4q-121 -12 -121 -72q0 -29 25 -69l287 -482l270 479q25 43 24 72q0 33 -30.5 49.5t-89.5 22.5l-41 4v72h463v-72l-23 -4q-59 -10 -102 -50t-93 -124l-315 -547v-447q0 -57 35 -82.5t98 -31.5l37 -4v-72h-541v72l37 4q63 6 98 31.5t35 82.5v420 l-356 592q-49 84 -80 115t-84 41zM602 1548l131 271h209v-17l-274 -254h-66z" />
<glyph unicode="&#xde;" horiz-adv-x="1259" d="M94 0v72l37 4q63 6 98 31.5t35 82.5v1053q0 57 -34.5 83t-98.5 32l-37 4v72h541v-72l-37 -4q-63 -6 -98 -32t-35 -83v-108h242q124 0 235 -44t179.5 -132.5t68.5 -213.5q0 -133 -64.5 -224t-172 -135t-236.5 -44h-252v-152q0 -57 35 -82.5t98 -31.5l37 -4v-72h-541z M465 436h203q163 0 238 72t75 223q0 160 -93 234.5t-233 74.5h-190v-604z" />
<glyph unicode="&#xdf;" horiz-adv-x="1259" d="M37 901v64l166 49v71q0 139 67.5 235.5t173 143.5t218.5 47q178 0 289.5 -74.5t111.5 -199.5q0 -80 -46 -135t-163 -137q-57 -41 -86 -68t-29 -47q0 -18 26 -43t118 -86l69 -47q129 -88 189.5 -169t60.5 -181t-52 -181.5t-140 -125.5t-189 -44q-119 0 -212 42t-136 120 q14 35 47 58.5t74 23.5q35 0 57.5 -19.5t50.5 -56.5q37 -47 69 -71.5t87 -24.5q78 0 130 57.5t52 145.5q0 78 -44 136t-136 122l-88 59q-104 70 -142 111t-38 84t28.5 82t88.5 98q78 80 119.5 143.5t41.5 145.5q0 92 -57 146.5t-160 54.5q-115 0 -186.5 -81t-71.5 -245 v-1104h-327v68l36 4q55 6 77 29.5t22 84.5v715h-166z" />
<glyph unicode="&#xe0;" horiz-adv-x="1042" d="M96 250q0 106 67.5 165.5t211.5 102.5l307 92v123q0 115 -50 174.5t-140 59.5q-68 0 -97.5 -35t-60.5 -129q-14 -43 -36 -58.5t-58 -15.5q-41 0 -76 19.5t-51 46.5q16 55 67 111.5t136 93t192 36.5q186 0 275 -85t89 -216v-540q0 -53 23 -77t70 -24q32 0 57 10v-38 q-33 -41 -82 -60.5t-96 -19.5q-78 0 -116 44t-44 109q-45 -68 -127 -115t-172 -47q-78 0 -143.5 35t-105.5 97.5t-40 140.5zM219 1479v16h209l131 -344h-65zM289 285q0 -76 49 -131.5t137 -55.5q62 0 118 29t89 70v327l-233 -73q-90 -29 -125 -65t-35 -101z" />
<glyph unicode="&#xe1;" horiz-adv-x="1042" d="M96 250q0 106 67.5 165.5t211.5 102.5l307 92v123q0 115 -50 174.5t-140 59.5q-68 0 -97.5 -35t-60.5 -129q-14 -43 -36 -58.5t-58 -15.5q-41 0 -76 19.5t-51 46.5q16 55 67 111.5t136 93t192 36.5q186 0 275 -85t89 -216v-540q0 -53 23 -77t70 -24q32 0 57 10v-38 q-33 -41 -82 -60.5t-96 -19.5q-78 0 -116 44t-44 109q-45 -68 -127 -115t-172 -47q-78 0 -143.5 35t-105.5 97.5t-40 140.5zM289 285q0 -76 49 -131.5t137 -55.5q62 0 118 29t89 70v327l-233 -73q-90 -29 -125 -65t-35 -101zM460 1151l131 344h209v-16l-274 -328h-66z" />
<glyph unicode="&#xe2;" horiz-adv-x="1042" d="M96 250q0 106 67.5 165.5t211.5 102.5l307 92v123q0 115 -50 174.5t-140 59.5q-68 0 -97.5 -35t-60.5 -129q-14 -43 -36 -58.5t-58 -15.5q-41 0 -76 19.5t-51 46.5q16 55 67 111.5t136 93t192 36.5q186 0 275 -85t89 -216v-540q0 -53 23 -77t70 -24q32 0 57 10v-38 q-33 -41 -82 -60.5t-96 -19.5q-78 0 -116 44t-44 109q-45 -68 -127 -115t-172 -47q-78 0 -143.5 35t-105.5 97.5t-40 140.5zM190 1151l215 344h207l215 -344h-80l-237 227l-240 -227h-80zM289 285q0 -76 49 -131.5t137 -55.5q62 0 118 29t89 70v327l-233 -73 q-90 -29 -125 -65t-35 -101z" />
<glyph unicode="&#xe3;" horiz-adv-x="1042" d="M96 250q0 106 67.5 165.5t211.5 102.5l307 92v123q0 115 -50 174.5t-140 59.5q-68 0 -97.5 -35t-60.5 -129q-14 -43 -36 -58.5t-58 -15.5q-41 0 -76 19.5t-51 46.5q16 55 67 111.5t136 93t192 36.5q186 0 275 -85t89 -216v-540q0 -53 23 -77t70 -24q32 0 57 10v-38 q-33 -41 -82 -60.5t-96 -19.5q-78 0 -116 44t-44 109q-45 -68 -127 -115t-172 -47q-78 0 -143.5 35t-105.5 97.5t-40 140.5zM176 1253q37 117 88 167t117 50q35 0 70.5 -13t82.5 -40q47 -23 73.5 -34t53.5 -11q78 0 113 101l67 -17q-37 -117 -88 -167t-116 -50 q-35 0 -71 13.5t-83 39.5q-47 23 -73.5 34t-53.5 11q-78 0 -113 -100zM289 285q0 -76 49 -131.5t137 -55.5q62 0 118 29t89 70v327l-233 -73q-90 -29 -125 -65t-35 -101z" />
<glyph unicode="&#xe4;" horiz-adv-x="1042" d="M96 250q0 106 67.5 165.5t211.5 102.5l307 92v123q0 115 -50 174.5t-140 59.5q-68 0 -97.5 -35t-60.5 -129q-14 -43 -36 -58.5t-58 -15.5q-41 0 -76 19.5t-51 46.5q16 55 67 111.5t136 93t192 36.5q186 0 275 -85t89 -216v-540q0 -53 23 -77t70 -24q32 0 57 10v-38 q-33 -41 -82 -60.5t-96 -19.5q-78 0 -116 44t-44 109q-45 -68 -127 -115t-172 -47q-78 0 -143.5 35t-105.5 97.5t-40 140.5zM188 1341q0 49 37 84t86 35t86 -34.5t37 -84.5q0 -49 -37 -83.5t-86 -34.5t-86 34.5t-37 83.5zM289 285q0 -76 49 -131.5t137 -55.5q62 0 118 29 t89 70v327l-233 -73q-90 -29 -125 -65t-35 -101zM584 1341q0 49 36.5 84t85.5 35t86 -34.5t37 -84.5q0 -49 -36.5 -83.5t-86.5 -34.5q-49 0 -85.5 34.5t-36.5 83.5z" />
<glyph unicode="&#xe5;" horiz-adv-x="1042" d="M96 250q0 106 67.5 165.5t211.5 102.5l307 92v123q0 115 -50 174.5t-140 59.5q-68 0 -97.5 -35t-60.5 -129q-14 -43 -36 -58.5t-58 -15.5q-41 0 -76 19.5t-51 46.5q16 55 67 111.5t136 93t192 36.5q186 0 275 -85t89 -216v-540q0 -53 23 -77t70 -24q32 0 57 10v-38 q-33 -41 -82 -60.5t-96 -19.5q-78 0 -116 44t-44 109q-45 -68 -127 -115t-172 -47q-78 0 -143.5 35t-105.5 97.5t-40 140.5zM289 285q0 -76 49 -131.5t137 -55.5q62 0 118 29t89 70v327l-233 -73q-90 -29 -125 -65t-35 -101zM297 1366q0 84 62.5 144.5t150.5 60.5 t150.5 -60.5t62.5 -144.5t-62.5 -144.5t-150.5 -60.5t-150.5 60.5t-62.5 144.5zM387 1366q0 -55 35 -90t88 -35q54 0 88.5 35t34.5 90t-34.5 90t-88.5 35q-53 0 -88 -35t-35 -90z" />
<glyph unicode="&#xe6;" horiz-adv-x="1622" d="M96 252q0 111 67.5 167t219.5 101l305 92v117q0 111 -50 169t-140 58q-76 0 -108 -33.5t-58 -121.5q-14 -47 -35 -62.5t-53 -15.5q-43 0 -75 18.5t-50 44.5q12 57 60 114.5t133 96.5t198 39q129 0 210 -42t114 -109q66 70 146.5 108.5t160.5 38.5q127 0 219 -55 t138 -147.5t46 -198.5q0 -41 -2 -60h-674q2 -219 102.5 -327.5t246.5 -108.5q90 0 159.5 40t132.5 122l47 -31q-70 -147 -177 -219t-242 -72q-119 0 -215.5 53.5t-155.5 151.5q-150 -201 -363 -200q-82 0 -152.5 34.5t-112.5 97t-42 140.5zM285 281q0 -76 52 -125.5 t146 -49.5q135 0 256 123q-51 113 -51 254v41l-237 -75q-92 -29 -129 -67t-37 -101zM872 662h474q-10 131 -67.5 208.5t-156.5 77.5q-92 0 -161.5 -75.5t-88.5 -210.5z" />
<glyph unicode="&#xe7;" horiz-adv-x="991" d="M82 489q0 154 65.5 279t178 195.5t245.5 70.5q119 0 199 -36.5t120 -87t50 -93.5q-20 -33 -52 -53.5t-69 -20.5q-35 0 -58.5 18.5t-45.5 59.5q-33 61 -69 94t-107 33q-68 0 -129.5 -41t-101.5 -129t-40 -219q0 -133 47 -228t125 -144.5t168 -49.5q96 0 170 47t137 135 l52 -30q-57 -150 -165 -231t-255 -81h-21l-30 -75q82 -18 137 -62.5t55 -124.5t-56.5 -128t-146.5 -48q-66 0 -113.5 19.5t-72.5 40.5l29 53q57 -39 135 -39q45 0 71.5 19.5t26.5 62.5q0 47 -54 75.5t-130 32.5l76 183q-174 33 -272.5 169t-98.5 334z" />
<glyph unicode="&#xe8;" horiz-adv-x="1015" d="M82 483q0 162 64.5 288t169 193.5t219.5 67.5q127 0 219 -55t138 -147.5t46 -198.5q0 -41 -2 -60h-674q2 -219 102.5 -327.5t245.5 -108.5q90 0 160 40t133 122l47 -31q-70 -147 -177 -219t-243 -72q-129 0 -231 62.5t-159.5 178.5t-57.5 267zM264 1479v16h209l131 -344 h-65zM266 662h473q-10 131 -67.5 208.5t-155.5 77.5q-92 0 -161.5 -75.5t-88.5 -210.5z" />
<glyph unicode="&#xe9;" horiz-adv-x="1015" d="M82 483q0 162 64.5 288t169 193.5t219.5 67.5q127 0 219 -55t138 -147.5t46 -198.5q0 -41 -2 -60h-674q2 -219 102.5 -327.5t245.5 -108.5q90 0 160 40t133 122l47 -31q-70 -147 -177 -219t-243 -72q-129 0 -231 62.5t-159.5 178.5t-57.5 267zM266 662h473 q-10 131 -67.5 208.5t-155.5 77.5q-92 0 -161.5 -75.5t-88.5 -210.5zM506 1151l131 344h209v-16l-274 -328h-66z" />
<glyph unicode="&#xea;" horiz-adv-x="1015" d="M82 483q0 162 64.5 288t169 193.5t219.5 67.5q127 0 219 -55t138 -147.5t46 -198.5q0 -41 -2 -60h-674q2 -219 102.5 -327.5t245.5 -108.5q90 0 160 40t133 122l47 -31q-70 -147 -177 -219t-243 -72q-129 0 -231 62.5t-159.5 178.5t-57.5 267zM235 1151l215 344h207 l215 -344h-80l-237 227l-240 -227h-80zM266 662h473q-10 131 -67.5 208.5t-155.5 77.5q-92 0 -161.5 -75.5t-88.5 -210.5z" />
<glyph unicode="&#xeb;" horiz-adv-x="1015" d="M82 483q0 162 64.5 288t169 193.5t219.5 67.5q127 0 219 -55t138 -147.5t46 -198.5q0 -41 -2 -60h-674q2 -219 102.5 -327.5t245.5 -108.5q90 0 160 40t133 122l47 -31q-70 -147 -177 -219t-243 -72q-129 0 -231 62.5t-159.5 178.5t-57.5 267zM233 1341q0 49 37 84t86 35 t86 -34.5t37 -84.5q0 -49 -37 -83.5t-86 -34.5t-86 34.5t-37 83.5zM266 662h473q-10 131 -67.5 208.5t-155.5 77.5q-92 0 -161.5 -75.5t-88.5 -210.5zM629 1341q0 49 36.5 84t85.5 35t86 -34.5t37 -84.5q0 -49 -36.5 -83.5t-86.5 -34.5q-49 0 -85.5 34.5t-36.5 83.5z" />
<glyph unicode="&#xec;" horiz-adv-x="585" d="M8 1479v16h209l131 -344h-65zM74 0v68l37 4q55 6 76.5 29.5t21.5 84.5v572q0 41 -10.5 61.5t-38 33.5t-86.5 32v53l309 92h18v-844q0 -61 21.5 -84.5t77.5 -29.5l37 -4v-68h-463z" />
<glyph unicode="&#xed;" horiz-adv-x="585" d="M74 0v68l37 4q55 6 76.5 29.5t21.5 84.5v572q0 41 -10.5 61.5t-38 33.5t-86.5 32v53l309 92h18v-844q0 -61 21.5 -84.5t77.5 -29.5l37 -4v-68h-463zM250 1151l131 344h209v-16l-274 -328h-66z" />
<glyph unicode="&#xee;" horiz-adv-x="585" d="M-21 1151l215 344h207l215 -344h-80l-237 227l-240 -227h-80zM74 0v68l37 4q55 6 76.5 29.5t21.5 84.5v572q0 41 -10.5 61.5t-38 33.5t-86.5 32v53l309 92h18v-844q0 -61 21.5 -84.5t77.5 -29.5l37 -4v-68h-463z" />
<glyph unicode="&#xef;" horiz-adv-x="585" d="M-23 1341q0 49 37 84t86 35t86 -34.5t37 -84.5q0 -49 -37 -83.5t-86 -34.5t-86 34.5t-37 83.5zM74 0v68l37 4q55 6 76.5 29.5t21.5 84.5v572q0 41 -10.5 61.5t-38 33.5t-86.5 32v53l309 92h18v-844q0 -61 21.5 -84.5t77.5 -29.5l37 -4v-68h-463zM373 1341q0 49 36.5 84 t85.5 35t86 -34.5t37 -84.5q0 -49 -36.5 -83.5t-86.5 -34.5q-49 0 -85.5 34.5t-36.5 83.5z" />
<glyph unicode="&#xf0;" horiz-adv-x="1173" d="M82 479q0 147 67.5 264t179 182.5t238.5 65.5q74 0 139.5 -25.5t110.5 -72.5q-39 164 -143 309l-268 -98l-29 78l239 88q-104 117 -262 205l41 51q205 -76 350 -209l216 78l28 -78l-178 -66q133 -143 202.5 -326.5t69.5 -385.5q0 -178 -66.5 -305.5t-180 -193 t-250.5 -65.5q-135 0 -251 63.5t-184.5 178.5t-68.5 262zM295 524q0 -121 36 -227.5t104.5 -171t162.5 -64.5q135 0 207 106.5t72 281.5q0 129 -37 232t-106.5 163.5t-160.5 60.5q-135 0 -206.5 -104.5t-71.5 -276.5z" />
<glyph unicode="&#xf1;" horiz-adv-x="1214" d="M74 0v68l37 4q55 6 76.5 29.5t21.5 84.5v572q0 41 -10.5 61.5t-38 33.5t-86.5 32v53l303 92h18v-170q49 72 140.5 124t197.5 52q152 0 226.5 -88t74.5 -207v-555q0 -61 21.5 -84.5t77.5 -29.5l36 -4v-68h-462v68l36 4q55 6 77 29.5t22 84.5v504q0 104 -52.5 160.5 t-144.5 56.5q-72 0 -134 -27.5t-110 -72.5v-621q0 -61 21.5 -84.5t77.5 -29.5l37 -4v-68h-463zM291 1253q37 117 88 167t117 50q35 0 70.5 -13t82.5 -40q47 -23 73.5 -34t53.5 -11q78 0 113 101l67 -17q-37 -117 -88 -167t-116 -50q-35 0 -71 13.5t-83 39.5q-47 23 -73.5 34 t-53.5 11q-78 0 -113 -100z" />
<glyph unicode="&#xf2;" horiz-adv-x="1171" d="M82 500q0 154 68.5 275.5t184.5 189t251 67.5t250.5 -65.5t184.5 -185t69 -273.5t-69 -275.5t-184.5 -189.5t-250.5 -68t-251 65.5t-184.5 185.5t-68.5 274zM295 545q0 -127 36 -237.5t104.5 -178.5t162.5 -68q135 0 207 111t72 291q0 137 -37 246.5t-106.5 173 t-160.5 63.5q-135 0 -206.5 -110.5t-71.5 -290.5zM295 1479v16h209l131 -344h-65z" />
<glyph unicode="&#xf3;" horiz-adv-x="1171" d="M82 500q0 154 68.5 275.5t184.5 189t251 67.5t250.5 -65.5t184.5 -185t69 -273.5t-69 -275.5t-184.5 -189.5t-250.5 -68t-251 65.5t-184.5 185.5t-68.5 274zM295 545q0 -127 36 -237.5t104.5 -178.5t162.5 -68q135 0 207 111t72 291q0 137 -37 246.5t-106.5 173 t-160.5 63.5q-135 0 -206.5 -110.5t-71.5 -290.5zM536 1151l131 344h209v-16l-274 -328h-66z" />
<glyph unicode="&#xf4;" horiz-adv-x="1171" d="M82 500q0 154 68.5 275.5t184.5 189t251 67.5t250.5 -65.5t184.5 -185t69 -273.5t-69 -275.5t-184.5 -189.5t-250.5 -68t-251 65.5t-184.5 185.5t-68.5 274zM266 1151l215 344h207l215 -344h-80l-237 227l-240 -227h-80zM295 545q0 -127 36 -237.5t104.5 -178.5 t162.5 -68q135 0 207 111t72 291q0 137 -37 246.5t-106.5 173t-160.5 63.5q-135 0 -206.5 -110.5t-71.5 -290.5z" />
<glyph unicode="&#xf5;" horiz-adv-x="1171" d="M82 500q0 154 68.5 275.5t184.5 189t251 67.5t250.5 -65.5t184.5 -185t69 -273.5t-69 -275.5t-184.5 -189.5t-250.5 -68t-251 65.5t-184.5 185.5t-68.5 274zM252 1253q37 117 88 167t117 50q35 0 70.5 -13t82.5 -40q47 -23 73.5 -34t53.5 -11q78 0 113 101l67 -17 q-37 -117 -88 -167t-116 -50q-35 0 -71 13.5t-83 39.5q-47 23 -73.5 34t-53.5 11q-78 0 -113 -100zM295 545q0 -127 36 -237.5t104.5 -178.5t162.5 -68q135 0 207 111t72 291q0 137 -37 246.5t-106.5 173t-160.5 63.5q-135 0 -206.5 -110.5t-71.5 -290.5z" />
<glyph unicode="&#xf6;" horiz-adv-x="1171" d="M82 500q0 154 68.5 275.5t184.5 189t251 67.5t250.5 -65.5t184.5 -185t69 -273.5t-69 -275.5t-184.5 -189.5t-250.5 -68t-251 65.5t-184.5 185.5t-68.5 274zM264 1341q0 49 37 84t86 35t86 -34.5t37 -84.5q0 -49 -37 -83.5t-86 -34.5t-86 34.5t-37 83.5zM295 545 q0 -127 36 -237.5t104.5 -178.5t162.5 -68q135 0 207 111t72 291q0 137 -37 246.5t-106.5 173t-160.5 63.5q-135 0 -206.5 -110.5t-71.5 -290.5zM660 1341q0 49 36.5 84t85.5 35t86 -34.5t37 -84.5q0 -49 -36.5 -83.5t-86.5 -34.5q-49 0 -85.5 34.5t-36.5 83.5z" />
<glyph unicode="&#xf7;" d="M123 621v118h942v-118h-942zM465 352q0 51 38 88t91 37t91 -37t38 -88q0 -49 -40 -87t-89 -38q-53 0 -91 37t-38 88zM465 1008q0 51 38 88t91 37t91 -37t38 -88q0 -49 -40 -87t-89 -38q-53 0 -91 36.5t-38 88.5z" />
<glyph unicode="&#xf8;" horiz-adv-x="1171" d="M82 500q0 154 68.5 275.5t184.5 189t251 67.5q150 0 274 -80l78 107l68 -43l-82 -113q77 -72 121.5 -173t44.5 -222q0 -154 -69 -275.5t-184.5 -189.5t-250.5 -68q-150 0 -275 80l-78 -108l-67 43l82 114q-78 72 -122 173.5t-44 222.5zM295 545q0 -164 57 -295l424 586 q-82 111 -203 110q-135 0 -206.5 -110.5t-71.5 -290.5zM397 174q80 -113 201 -113q135 0 207 111t72 291q0 170 -58 295z" />
<glyph unicode="&#xf9;" horiz-adv-x="1181" d="M43 924v53l309 53h19v-698q0 -104 53 -167t162 -63q131 0 219 93q-2 20 -2 61v547q0 41 -10.5 61.5t-37 31.5t-87.5 28v53l309 53h18v-809q0 -67 26 -89.5t109 -39.5v-57l-272 -49q-33 57 -49 157q-41 -66 -124 -116t-183 -50q-158 0 -241 85t-83 243v498q0 41 -10 61.5 t-37 31.5t-88 28zM301 1479v16h209l131 -344h-65z" />
<glyph unicode="&#xfa;" horiz-adv-x="1181" d="M43 924v53l309 53h19v-698q0 -104 53 -167t162 -63q131 0 219 93q-2 20 -2 61v547q0 41 -10.5 61.5t-37 31.5t-87.5 28v53l309 53h18v-809q0 -67 26 -89.5t109 -39.5v-57l-272 -49q-33 57 -49 157q-41 -66 -124 -116t-183 -50q-158 0 -241 85t-83 243v498q0 41 -10 61.5 t-37 31.5t-88 28zM542 1151l131 344h209v-16l-274 -328h-66z" />
<glyph unicode="&#xfb;" horiz-adv-x="1181" d="M43 924v53l309 53h19v-698q0 -104 53 -167t162 -63q131 0 219 93q-2 20 -2 61v547q0 41 -10.5 61.5t-37 31.5t-87.5 28v53l309 53h18v-809q0 -67 26 -89.5t109 -39.5v-57l-272 -49q-33 57 -49 157q-41 -66 -124 -116t-183 -50q-158 0 -241 85t-83 243v498q0 41 -10 61.5 t-37 31.5t-88 28zM272 1151l215 344h207l215 -344h-80l-237 227l-240 -227h-80z" />
<glyph unicode="&#xfc;" horiz-adv-x="1181" d="M43 924v53l309 53h19v-698q0 -104 53 -167t162 -63q131 0 219 93q-2 20 -2 61v547q0 41 -10.5 61.5t-37 31.5t-87.5 28v53l309 53h18v-809q0 -67 26 -89.5t109 -39.5v-57l-272 -49q-33 57 -49 157q-41 -66 -124 -116t-183 -50q-158 0 -241 85t-83 243v498q0 41 -10 61.5 t-37 31.5t-88 28zM270 1341q0 49 37 84t86 35t86 -34.5t37 -84.5q0 -49 -37 -83.5t-86 -34.5t-86 34.5t-37 83.5zM666 1341q0 49 36.5 84t85.5 35t86 -34.5t37 -84.5q0 -49 -36.5 -83.5t-86.5 -34.5q-49 0 -85.5 34.5t-36.5 83.5z" />
<glyph unicode="&#xfd;" horiz-adv-x="1077" d="M16 -377q12 59 49 102.5t93 43.5q35 0 75 -13q31 -10 60 -10q33 0 55.5 21.5t49 75t75.5 171.5l8 19l-291 678q-41 94 -63.5 137t-47 64.5t-63.5 27.5v68h457v-68l-39 -6q-51 -8 -74.5 -25.5t-23.5 -50.5q0 -37 31 -108l206 -496l203 483q31 74 31 115q0 37 -21.5 56.5 t-62.5 25.5l-39 6v68h387v-68q-61 -12 -101 -58t-91 -167l-316 -731q-72 -166 -129 -255t-115.5 -126t-134.5 -37q-100 0 -168 57zM510 1151l131 344h209v-16l-274 -328h-66z" />
<glyph unicode="&#xfe;" horiz-adv-x="1159" d="M29 -362l37 4q55 6 76.5 29.5t21.5 84.5v1487q0 41 -10.5 61.5t-38 34t-86.5 31.5v53l309 93h18v-623q45 57 121 96t178 39q119 0 214.5 -61.5t149.5 -174t54 -262.5q0 -164 -67.5 -288.5t-191.5 -194.5t-288 -70q-86 0 -170 19v-240q0 -61 21.5 -84.5t77.5 -29.5l37 -4 v-68h-463v68zM356 125q76 -66 191 -66q151 0 234 107.5t83 327.5q0 197 -84 306t-223 109q-119 0 -201 -78v-706z" />
<glyph unicode="&#xff;" horiz-adv-x="1077" d="M16 -377q12 59 49 102.5t93 43.5q35 0 75 -13q31 -10 60 -10q33 0 55.5 21.5t49 75t75.5 171.5l8 19l-291 678q-41 94 -63.5 137t-47 64.5t-63.5 27.5v68h457v-68l-39 -6q-51 -8 -74.5 -25.5t-23.5 -50.5q0 -37 31 -108l206 -496l203 483q31 74 31 115q0 37 -21.5 56.5 t-62.5 25.5l-39 6v68h387v-68q-61 -12 -101 -58t-91 -167l-316 -731q-72 -166 -129 -255t-115.5 -126t-134.5 -37q-100 0 -168 57zM237 1341q0 49 37 84t86 35t86 -34.5t37 -84.5q0 -49 -37 -83.5t-86 -34.5t-86 34.5t-37 83.5zM633 1341q0 49 36.5 84t85.5 35t86 -34.5 t37 -84.5q0 -49 -36.5 -83.5t-86.5 -34.5q-49 0 -85.5 34.5t-36.5 83.5z" />
<glyph unicode="&#x152;" horiz-adv-x="2095" d="M98 713q0 217 93.5 386t253 263t354.5 94q100 0 202 -22h936v-342h-75q-23 96 -53.5 147t-88 75.5t-161.5 24.5h-326v-555h215q100 0 141 34t66 124h69v-430h-69q-25 96 -67 137t-140 41h-215v-500q0 -57 32.5 -76.5t100.5 -19.5h180q131 0 200 25.5t109.5 89t81.5 194.5 h76l-28 -403h-984q-102 -23 -202 -23q-195 0 -354.5 92.5t-253 260.5t-93.5 383zM328 758q0 -189 58 -346.5t169 -249.5t258 -92q121 0 219 49v1179q-109 66 -248 66q-133 0 -236.5 -77t-161.5 -215t-58 -314z" />
<glyph unicode="&#x153;" horiz-adv-x="1828" d="M82 500q0 154 68.5 275.5t184.5 189t251 67.5q125 0 231.5 -60.5t171.5 -166.5q63 106 159.5 166.5t199.5 60.5q127 0 219 -55t138 -147.5t46 -198.5q0 -41 -2 -60h-674q2 -219 102.5 -327.5t245.5 -108.5q90 0 160 40t133 122l47 -31q-70 -147 -177 -219t-243 -72 q-119 0 -214 55.5t-154 155.5q-66 -98 -169.5 -154.5t-219.5 -56.5q-135 0 -251 65.5t-184.5 185.5t-68.5 274zM295 545q0 -127 36 -237.5t104.5 -178.5t162.5 -68q135 0 207 111t72 291q0 137 -37 246.5t-106.5 173t-160.5 63.5q-135 0 -206.5 -110.5t-71.5 -290.5z M1079 662h473q-10 131 -67.5 208.5t-155.5 77.5q-92 0 -161.5 -75.5t-88.5 -210.5z" />
<glyph unicode="&#x178;" horiz-adv-x="1329" d="M27 1362v72h530v-72l-41 -4q-121 -12 -121 -72q0 -29 25 -69l287 -482l270 479q25 43 24 72q0 33 -30.5 49.5t-89.5 22.5l-41 4v72h463v-72l-23 -4q-59 -10 -102 -50t-93 -124l-315 -547v-447q0 -57 35 -82.5t98 -31.5l37 -4v-72h-541v72l37 4q63 6 98 31.5t35 82.5v420 l-356 592q-49 84 -80 115t-84 41zM332 1683q0 51 36 86t89 35t89 -34.5t36 -86.5q0 -51 -36 -85.5t-89 -34.5t-89 34.5t-36 85.5zM772 1683q0 51 36 86t89 35t89 -34.5t36 -86.5q0 -51 -35.5 -85.5t-89.5 -34.5q-53 0 -89 34.5t-36 85.5z" />
<glyph unicode="&#x2c6;" horiz-adv-x="1228" d="M284 1151l215 344h207l215 -344h-80l-237 227l-240 -227h-80z" />
<glyph unicode="&#x2dc;" horiz-adv-x="1228" d="M283 1253q37 117 88 167t117 50q35 0 70.5 -13t82.5 -40q47 -23 73.5 -34t53.5 -11q78 0 113 101l67 -17q-37 -117 -88 -167t-116 -50q-35 0 -71 13.5t-83 39.5q-47 23 -73.5 34t-53.5 11q-78 0 -113 -100z" />
<glyph unicode="&#x2000;" horiz-adv-x="956" />
<glyph unicode="&#x2001;" horiz-adv-x="1913" />
<glyph unicode="&#x2002;" horiz-adv-x="956" />
<glyph unicode="&#x2003;" horiz-adv-x="1913" />
<glyph unicode="&#x2004;" horiz-adv-x="637" />
<glyph unicode="&#x2005;" horiz-adv-x="478" />
<glyph unicode="&#x2006;" horiz-adv-x="318" />
<glyph unicode="&#x2007;" horiz-adv-x="318" />
<glyph unicode="&#x2008;" horiz-adv-x="239" />
<glyph unicode="&#x2009;" horiz-adv-x="382" />
<glyph unicode="&#x200a;" horiz-adv-x="106" />
<glyph unicode="&#x2010;" horiz-adv-x="788" d="M102 524v152h584v-152h-584z" />
<glyph unicode="&#x2011;" horiz-adv-x="788" d="M102 524v152h584v-152h-584z" />
<glyph unicode="&#x2012;" horiz-adv-x="788" d="M102 524v152h584v-152h-584z" />
<glyph unicode="&#x2013;" horiz-adv-x="1361" d="M102 541v118h1158v-118h-1158z" />
<glyph unicode="&#x2014;" horiz-adv-x="2048" d="M102 541v118h1844v-118h-1844z" />
<glyph unicode="&#x2018;" horiz-adv-x="530" d="M113 1122q0 78 34.5 152t104.5 123t166 57v-72q-72 -12 -119 -51t-47 -90q0 -27 16.5 -42t48.5 -36q39 -23 60.5 -46t21.5 -64q0 -49 -38.5 -85t-92.5 -36q-74 0 -114.5 53t-40.5 137z" />
<glyph unicode="&#x2019;" horiz-adv-x="530" d="M113 936v72q72 12 119 51t47 90q0 27 -16.5 42t-49.5 36q-39 23 -60.5 46t-21.5 64q0 49 39 85t92 36q74 0 115 -53t41 -137q0 -78 -35 -152t-104.5 -123t-165.5 -57z" />
<glyph unicode="&#x201a;" horiz-adv-x="499" d="M93 -204q72 12 119 51t47 90q0 27 -16.5 42t-49.5 36q-39 23 -60.5 46t-21.5 64q0 49 39 85t92 36q74 0 115 -53t41 -137q0 -78 -35 -152t-104.5 -123t-165.5 -57v72z" />
<glyph unicode="&#x201c;" horiz-adv-x="958" d="M113 1122q0 78 34.5 152t104.5 123t166 57v-72q-72 -12 -119 -51t-47 -90q0 -27 16.5 -42t48.5 -36q39 -23 60.5 -46t21.5 -64q0 -49 -38.5 -85t-92.5 -36q-74 0 -114.5 53t-40.5 137zM541 1122q0 78 34.5 152t104.5 123t166 57v-72q-72 -12 -119 -51t-47 -90 q0 -27 16.5 -42t48.5 -36q39 -23 60.5 -46t21.5 -64q0 -49 -38.5 -85t-92.5 -36q-74 0 -114.5 53t-40.5 137z" />
<glyph unicode="&#x201d;" horiz-adv-x="958" d="M113 936v72q72 12 119 51t47 90q0 27 -16.5 42t-49.5 36q-39 23 -60.5 46t-21.5 64q0 49 39 85t92 36q74 0 115 -53t41 -137q0 -78 -35 -152t-104.5 -123t-165.5 -57zM541 936v72q72 12 119 51t47 90q0 27 -16.5 42t-49.5 36q-39 23 -60.5 46t-21.5 64q0 49 39 85t92 36 q74 0 115 -53t41 -137q0 -78 -35 -152t-104.5 -123t-165.5 -57z" />
<glyph unicode="&#x201e;" horiz-adv-x="927" d="M93 -204q72 12 119 51t47 90q0 27 -16.5 42t-49.5 36q-39 23 -60.5 46t-21.5 64q0 49 39 85t92 36q74 0 115 -53t41 -137q0 -78 -35 -152t-104.5 -123t-165.5 -57v72zM521 -204q72 12 119 51t47 90q0 27 -16.5 42t-49.5 36q-39 23 -60.5 46t-21.5 64q0 49 39 85t92 36 q74 0 115 -53t41 -137q0 -78 -35 -152t-104.5 -123t-165.5 -57v72z" />
<glyph unicode="&#x2022;" horiz-adv-x="972" d="M172 676q0 84 42 156.5t114.5 114.5t158.5 42q84 0 157 -42t115 -114.5t42 -156.5q0 -86 -42 -159t-115 -115t-157 -42q-86 0 -158.5 42t-114.5 115t-42 159z" />
<glyph unicode="&#x2026;" horiz-adv-x="1482" d="M115 115q0 53 40 92t95 39t95 -39t40 -92t-40 -92t-95 -39t-95 38.5t-40 92.5zM607 115q0 53 40 92t95 39t95 -39t40 -92t-40 -92t-95 -39t-95 38.5t-40 92.5zM1098 115q0 53 40 92t95 39t95 -39t40 -92t-40 -92t-95 -39t-95 38.5t-40 92.5z" />
<glyph unicode="&#x202f;" horiz-adv-x="382" />
<glyph unicode="&#x2039;" horiz-adv-x="757" d="M143 512v10l412 428l70 -51l-291 -383l291 -383l-70 -51z" />
<glyph unicode="&#x203a;" horiz-adv-x="757" d="M133 133l291 383l-291 383l70 51l411 -428v-10l-411 -430z" />
<glyph unicode="&#x205f;" horiz-adv-x="478" />
<glyph unicode="&#x20ac;" d="M70 815v94h149q29 168 104.5 294t187.5 193.5t243 67.5q178 0 348 -84v-327h-70q-43 180 -113.5 251.5t-173.5 71.5q-133 0 -213.5 -124t-103.5 -343h471l-29 -94h-448v-59q0 -57 2 -84h420l-29 -94h-383q27 -213 112 -339t226 -126q102 0 178 65.5t144 210.5l67 -33 q-61 -170 -169.5 -278.5t-272.5 -108.5q-135 0 -242.5 76t-176.5 213t-87 320h-139v94h131v47q0 35 4 96h-137z" />
<glyph unicode="&#x2122;" horiz-adv-x="1828" d="M72 1241l14 193h619l14 -193h-41q-31 80 -60.5 108.5t-101.5 28.5h-59v-559q0 -49 65 -57l19 -2v-43h-289v43l16 2q31 4 48.5 16.5t17.5 40.5v559h-58q-74 0 -103.5 -28.5t-57.5 -108.5h-43zM809 717v43l18 2q33 4 49.5 20.5t16.5 57.5v491q0 29 -17.5 41t-48.5 17l-18 2 v43h227l236 -545l235 545h228v-43l-19 -2q-65 -9 -65 -58v-512q0 -49 65 -57l19 -2v-43h-289v43l16 2q68 8 68 57v512l-268 -614h-39l-265 612v-489q0 -41 16.5 -57.5t49.5 -20.5l18 -2v-43h-233z" />
<glyph unicode="&#x25fc;" horiz-adv-x="1003" d="M0 0v1004h1004v-1004h-1004z" />
</font>
</defs>
</svg>
