<?xml version="1.0" standalone="no"?>
<!DOCTYPE svg PUBLIC "-//W3C//DTD SVG 1.1//EN" "http://www.w3.org/Graphics/SVG/1.1/DTD/svg11.dtd" >
<svg xmlns="http://www.w3.org/2000/svg" xmlns:xlink="http://www.w3.org/1999/xlink" version="1.1">
<metadata></metadata>
<defs>
<font id="ivar_text_hydroitalic" horiz-adv-x="1187" >
<font-face units-per-em="2048" ascent="1536" descent="-512" />
<missing-glyph horiz-adv-x="491" />
<glyph unicode="&#xfb02;" d="M-362 -328q41 76 110 76q31 0 50.5 -14.5t41.5 -44.5q23 -33 41.5 -48.5t42.5 -15.5q41 0 73 39t61.5 131t62.5 258l170 848h-164l14 64l172 49l19 92q29 143 104.5 237.5t173 136.5t199.5 42q121 0 217 -56l166 50h18l-297 -1287q-16 -61 -16 -94q0 -43 35 -43 q59 1 170 144l41 -33q-90 -133 -156.5 -178t-140.5 -45q-127 0 -127 143q0 39 14 106l246 1057q-23 61 -77 110.5t-136 49.5q-94 0 -154.5 -79t-99.5 -257l-20 -102h241l-45 -107h-219l-184 -881q-49 -236 -154.5 -349t-249.5 -113q-94 0 -160.5 34.5t-82.5 79.5z" />
<glyph horiz-adv-x="0" />
<glyph horiz-adv-x="682" />
<glyph unicode=" "  horiz-adv-x="491" />
<glyph unicode="&#x09;" horiz-adv-x="491" />
<glyph unicode="&#xa0;" horiz-adv-x="491" />
<glyph unicode="!" horiz-adv-x="638" d="M100 115q0 53 40 92t96 39q55 0 95 -39t40 -92t-40 -92t-95 -39q-56 0 -96 38.5t-40 92.5zM254 406l106 884q10 82 44 127t108 45q47 0 80 -29.5t33 -72.5q0 -45 -37 -152l-279 -802h-55z" />
<glyph unicode="&#x22;" horiz-adv-x="831" d="M289 918l6 305q0 80 10 123q10 47 42 75.5t77 28.5q47 0 73.5 -26.5t26.5 -71.5q0 -29 -12 -64t-37 -86l-127 -284h-59zM678 918l6 305q0 80 10 123q10 47 42 75.5t77 28.5q47 0 73.5 -26.5t26.5 -71.5q0 -29 -12 -64t-37 -86l-127 -284h-59z" />
<glyph unicode="#" d="M47 467l21 92h243l148 315h-221l20 93h242l217 467h108l-217 -467h301l217 467h109l-217 -467h223l-20 -93h-244l-148 -315h222l-21 -92h-242l-217 -467h-108l217 467h-301l-217 -467h-109l217 467h-223zM420 559h301l147 315h-301z" />
<glyph unicode="$" d="M96 102l103 396h75q-2 -20 -2 -62q0 -133 49.5 -227t143.5 -129l137 590l-47 35q-125 98 -185.5 178t-60.5 186q0 119 61.5 209t164 138t219.5 48h30l35 146h92l-37 -156q154 -27 289 -92l-86 -342h-69q6 272 -156 334l-123 -529l57 -43q131 -102 190.5 -187t59.5 -192 q0 -129 -63.5 -227t-174 -152.5t-245.5 -54.5h-23l-41 -180h-92l43 188q-100 14 -189 49t-155 76zM485 1141q0 -70 35 -123t131 -131l113 485h-29q-104 0 -177 -62.5t-73 -168.5zM553 61h22q119 0 201 75t82 200q0 78 -42 138.5t-136 135.5z" />
<glyph unicode="%" horiz-adv-x="1865" d="M244 1065q0 115 55 205t145.5 139t188.5 49q80 0 148.5 -42t110.5 -113.5t42 -157.5q0 -113 -56.5 -203t-146.5 -139t-188 -49q-80 0 -148.5 42t-109.5 112.5t-41 156.5zM272 0l1280 1434h140l-1280 -1434h-140zM408 1049q0 -106 37.5 -168t111.5 -62q59 0 108.5 53.5 t77 134t27.5 160.5q0 106 -35 166t-108 60q-61 0 -111.5 -51.5t-79 -132.5t-28.5 -160zM1030 287q0 115 55.5 205t145.5 139t188 49q80 0 148.5 -42t110.5 -113.5t42 -157.5q0 -113 -56 -203t-146.5 -139.5t-188.5 -49.5q-80 0 -148.5 42t-109.5 113t-41 157zM1194 270 q0 -106 38 -167.5t111 -61.5q60 0 109 53t76.5 134t27.5 161q0 106 -34.5 165.5t-108.5 59.5q-61 0 -111.5 -51t-79 -132t-28.5 -161z" />
<glyph unicode="&#x26;" horiz-adv-x="1456" d="M84 305q0 147 103.5 252t299.5 211q-113 184 -112 326q0 98 57 182t148.5 133t189.5 49q84 0 153.5 -39t109.5 -102.5t40 -132.5q0 -127 -92 -223.5t-285 -186.5l265 -418q61 94 108 199q25 53 25 82q0 49 -68 57l-37 4l17 72h413l-16 -72l-35 -4q-59 -6 -108.5 -42 t-92.5 -113q-90 -160 -159 -254q63 -102 105 -148.5t89 -46.5q49 0 92 35t90 102l50 -26q-84 -131 -157 -179.5t-151 -48.5q-80 0 -134 42t-109 128q-92 -88 -192.5 -130t-217.5 -42q-121 0 -209 50.5t-134 127t-46 156.5zM274 334q0 -68 33 -129.5t94.5 -100t139.5 -38.5 q162 0 301 139l-316 500q-137 -88 -194.5 -174.5t-57.5 -196.5zM553 1141q0 -68 20.5 -136.5t81.5 -166.5q143 72 204 153.5t61 188.5q0 84 -39 141t-119 57q-86 0 -147.5 -69.5t-61.5 -167.5z" />
<glyph unicode="'" horiz-adv-x="442" d="M289 918l6 305q0 80 10 123q10 47 42 75.5t77 28.5q47 0 73.5 -26.5t26.5 -71.5q0 -29 -12 -64t-37 -86l-127 -284h-59z" />
<glyph unicode="(" horiz-adv-x="712" d="M141 397q0 242 94.5 472.5t256 418t364.5 309.5l47 -53q-283 -238 -436.5 -553t-153.5 -643q0 -201 47.5 -368.5t116.5 -272.5l-61 -47q-111 115 -193 302.5t-82 434.5z" />
<glyph unicode=")" horiz-adv-x="710" d="M-133 -283q283 238 436.5 553.5t153.5 642.5q0 201 -47.5 369t-116.5 272l61 48q111 -115 193 -302.5t82 -435.5q0 -242 -94.5 -472t-256 -417.5t-364.5 -310.5z" />
<glyph unicode="*" horiz-adv-x="1021" d="M295 975q0 23 11 42t32 30q20 10 112.5 37.5t172.5 48.5q-246 70 -285 90q-41 23 -41 69q0 23 10 41q25 43 72 43q20 0 43 -12q35 -20 219 -205q-68 260 -68 293q0 35 24 59.5t60 24.5q35 0 58.5 -24.5t23.5 -59.5q0 -37 -65 -289q182 182 215 201q23 12 43 12 q47 0 72 -43q12 -20 12 -43t-11.5 -41t-31.5 -28q-31 -16 -285 -88q80 -18 172 -46t113 -40q43 -27 43 -72q0 -20 -12 -43q-12 -20 -31 -31.5t-39 -11.5t-45 14q-31 20 -215 199q66 -252 65 -287q0 -35 -23.5 -59.5t-58.5 -24.5q-37 0 -60.5 24.5t-23.5 59.5q0 37 68 291 q-193 -186 -219 -203q-20 -12 -45 -12q-45 0 -70 41q-12 23 -12 43z" />
<glyph unicode="+" d="M164 621v118h407v412h127v-412h408v-118h-408v-412h-127v412h-407z" />
<glyph unicode="," horiz-adv-x="497" d="M-86 -291l16 66q90 10 141.5 52t51.5 105q0 27 -11.5 43.5t-33.5 42.5q-25 25 -37 46.5t-12 52.5q0 53 36.5 89t88.5 36q63 0 103 -45t40 -115q0 -96 -51 -181t-139.5 -137.5t-192.5 -54.5z" />
<glyph unicode="-" horiz-adv-x="739" d="M90 524l33 152h563l-33 -152h-563z" />
<glyph unicode="." horiz-adv-x="497" d="M25 115q0 53 39.5 92t95.5 39q55 0 95 -39t40 -92t-40 -92t-95 -39q-56 0 -95.5 38.5t-39.5 92.5z" />
<glyph unicode="/" horiz-adv-x="911" d="M-129 -307l1077 1843h127l-1077 -1843h-127z" />
<glyph unicode="0" horiz-adv-x="1228" d="M141 514q0 225 86 445.5t241 360.5t345 140q113 0 197 -70.5t130 -192.5t46 -275q0 -225 -86 -445.5t-238.5 -362t-343.5 -141.5q-115 0 -200 71t-131 193.5t-46 276.5zM350 453q0 -190 43 -290t144 -100q129 0 229 147.5t155.5 366t55.5 412.5q0 186 -44 283.5 t-142 97.5q-129 0 -230.5 -146.5t-156 -361.5t-54.5 -409z" />
<glyph unicode="1" horiz-adv-x="886" d="M-23 0l17 72l69 4q102 6 162 27.5t74 86.5l211 908q6 23 6 39q0 29 -20.5 40t-69.5 11h-174l12 55q274 88 475 205h39l-291 -1258q-2 -8 -2 -24q0 -51 47.5 -67.5t141.5 -22.5l65 -4l-16 -72h-746z" />
<glyph unicode="2" horiz-adv-x="1081" d="M-43 0l12 51l236 223l49 48q203 193 318.5 313.5t191.5 244.5t76 234q0 96 -58.5 143.5t-156.5 47.5q-111 0 -196 -61.5t-165 -172.5l-63 43q68 137 194.5 242.5t306.5 105.5q168 0 260.5 -86t92.5 -225q0 -129 -88 -263t-215 -254t-336 -292l-119 -98l-90 -76h350 q111 0 167 13.5t95 54t94 137.5h58l-131 -373h-883z" />
<glyph unicode="3" horiz-adv-x="1026" d="M4 182q23 45 61.5 68.5t77.5 23.5q35 0 58.5 -16t48.5 -51q53 -78 101 -115t128 -37q106 0 173 82t67 213q0 137 -99.5 236.5t-252.5 118.5l14 57q166 33 301 128t135 247q0 80 -51 128t-148 48q-106 0 -181 -49.5t-140 -130.5l-64 41q68 119 179.5 203.5t275.5 84.5 q150 0 239 -76.5t89 -199.5q0 -102 -61.5 -186.5t-149.5 -138.5t-174 -81q117 -47 197.5 -146t80.5 -228q0 -123 -66.5 -222.5t-174 -156t-224.5 -56.5t-208 33t-149 82t-83 96z" />
<glyph unicode="4" horiz-adv-x="1153" d="M66 334l30 133l848 967h170l-221 -957h203l-66 -143h-170l-78 -334h-182l78 334h-612zM223 477h488l174 756z" />
<glyph unicode="5" horiz-adv-x="1017" d="M2 182q23 45 61.5 68.5t77.5 23.5q35 0 58.5 -16t48.5 -51q57 -78 102 -115t121 -37q61 0 118.5 36t93.5 107.5t36 172.5q0 190 -145.5 299.5t-348.5 138.5l267 625h585l-73 -172h-488l-129 -308q248 -61 381 -192t133 -316q0 -121 -63.5 -230.5t-171 -177t-232.5 -67.5 q-115 0 -205 33t-146 82t-81 96z" />
<glyph unicode="6" horiz-adv-x="1136" d="M133 451q0 256 123 473t339 359t486 179l13 -61q-584 -188 -719 -666q55 76 142 119t194 43q104 0 184 -48t124 -132t44 -191q0 -152 -72.5 -278.5t-192.5 -200.5t-255 -74q-129 0 -222.5 66.5t-140.5 176.5t-47 235zM338 440q0 -170 54 -273.5t165 -103.5 q90 0 158.5 62.5t106.5 165t38 221.5q0 123 -55 197.5t-174 74.5q-88 0 -160 -41t-117 -100q-16 -102 -16 -203z" />
<glyph unicode="7" horiz-adv-x="1030" d="M166 0q98 274 325.5 620.5t503.5 641.5h-446q-106 0 -159.5 -40t-106.5 -132h-60l119 344h848l-12 -54q-545 -616 -785 -1380h-227z" />
<glyph unicode="8" horiz-adv-x="1081" d="M80 328q0 147 107.5 256.5t289.5 169.5l-4 4q-98 94 -140 176t-42 162q0 109 59.5 191.5t156.5 127.5t204 45q102 0 186 -43t131 -117.5t47 -166.5q0 -134 -96 -226t-244 -137q131 -127 183.5 -222t52.5 -190q0 -113 -65.5 -199.5t-173 -136t-228.5 -49.5t-218.5 49.5 t-151.5 130t-54 175.5zM272 344q0 -121 70 -201t184 -80q117 0 186.5 72t69.5 191q0 73 -44 147t-140 166l-78 74q-248 -125 -248 -369zM471 1145q0 -117 135 -250l88 -84q111 49 168.5 131t57.5 195q0 104 -59.5 168.5t-162.5 64.5q-100 0 -163.5 -64.5t-63.5 -160.5z" />
<glyph unicode="9" horiz-adv-x="1136" d="M141 31q584 188 719 665q-55 -76 -142 -118.5t-194 -42.5q-104 0 -184 48t-124 132t-44 190q0 152 72.5 279t192.5 200.5t255 73.5q129 0 222.5 -66.5t140.5 -176t47 -234.5q0 -256 -123 -473t-339 -359.5t-486 -179.5zM375 920q0 -123 55 -198t174 -75q88 0 160 41 t117 100q16 102 16 203q0 170 -54.5 273.5t-164.5 103.5q-90 0 -158.5 -62.5t-106.5 -165t-38 -220.5z" />
<glyph unicode=":" horiz-adv-x="589" d="M72 115q0 53 39.5 92t95.5 39q55 0 95 -39t40 -92t-40 -92t-95 -39q-56 0 -95.5 38.5t-39.5 92.5zM250 895q0 53 39.5 92t95.5 39q55 0 95 -39t40 -92t-40 -92t-95 -39q-56 0 -95.5 38.5t-39.5 92.5z" />
<glyph unicode=";" horiz-adv-x="589" d="M-39 -291l16 66q90 10 141.5 52t51.5 105q0 27 -11.5 43.5t-33.5 42.5q-25 25 -37 46.5t-12 52.5q0 53 36.5 89t88.5 36q63 0 103 -45t40 -115q0 -96 -51 -181t-139.5 -137.5t-192.5 -54.5zM250 895q0 53 39.5 92t95.5 39q55 0 95 -39t40 -92t-40 -92t-95 -39 q-56 0 -95.5 38.5t-39.5 92.5z" />
<glyph unicode="&#x3c;" d="M141 623v114l942 301v-129l-757 -229l757 -229v-129z" />
<glyph unicode="=" d="M164 437v118h942v-118h-942zM164 805v118h942v-118h-942z" />
<glyph unicode="&#x3e;" d="M184 322v129l758 229l-758 229v129l942 -301v-114z" />
<glyph unicode="?" horiz-adv-x="929" d="M221 115q0 53 40 92t95 39t95.5 -39t40.5 -92t-40 -92t-96 -39q-55 0 -95 38.5t-40 92.5zM240 1206q25 61 84 120.5t149 97.5t201 38q102 0 184 -43t128 -114.5t46 -153.5q0 -94 -45 -171t-114.5 -136.5t-182.5 -138.5q-123 -86 -168 -133.5t-71 -116.5l-19 -49h-63l4 49 q8 88 26.5 142t59.5 102.5t125 117.5q14 12 96 79t120 134.5t38 143.5q0 88 -49.5 148t-131.5 60q-51 0 -82.5 -21.5t-47 -47t-48.5 -88.5q-23 -45 -50.5 -65.5t-66.5 -20.5q-37 0 -69.5 20.5t-52.5 46.5z" />
<glyph unicode="@" horiz-adv-x="1857" d="M92 434q0 272 130 485.5t345 330t459 116.5q207 0 383 -86t279.5 -244.5t103.5 -369.5q0 -168 -64.5 -304.5t-171 -215t-227.5 -78.5q-115 0 -186.5 68.5t-71.5 166.5q0 23 2 35q-57 -119 -145 -195.5t-185 -76.5q-96 0 -163.5 76.5t-67.5 215.5q0 141 69.5 284.5 t188.5 237t258 93.5q129 0 184 -70l136 58h32l-133 -562q-16 -76 -16 -118q0 -143 125 -144q84 0 154.5 74t111.5 193.5t41 252.5q0 188 -83 329.5t-227.5 217.5t-322.5 76q-211 0 -391 -104.5t-286.5 -296t-106.5 -439.5t102.5 -401.5t262 -219t343.5 -65.5q139 0 269.5 36 t226.5 104l33 -58q-100 -84 -253 -129t-308 -45q-188 0 -378 74t-321 247t-131 451zM686 401q0 -102 34 -158.5t93 -56.5q107 0 205 177.5t158 429.5q-14 49 -52.5 78.5t-97.5 29.5q-94 0 -172 -73.5t-123 -189.5t-45 -237z" />
<glyph unicode="A" horiz-adv-x="1409" d="M-100 0l16 72l27 4q66 10 105.5 42t92.5 113l768 1217h62l159 -1219q10 -80 41 -110.5t97 -42.5l24 -4l-16 -72h-518l16 72l39 4q72 6 100.5 28.5t28.5 75.5q0 23 -2 35l-29 225h-510l-137 -223q-31 -51 -31 -82q0 -25 24 -39t75 -20l35 -4l-17 -72h-450zM461 535h438 l-76 589z" />
<glyph unicode="B" horiz-adv-x="1265" d="M-20 0l16 72l39 4q63 8 104 32.5t54 81.5l243 1053q4 25 4 33q0 70 -110 82l-35 4l16 72h523q178 0 291.5 -80t113.5 -217q0 -106 -55.5 -188.5t-144.5 -130.5t-187 -56q80 -10 153.5 -54t118.5 -115t45 -155q0 -143 -78.5 -241.5t-213 -147.5t-299.5 -49h-598zM385 160 q0 -39 28.5 -52.5t88.5 -13.5h84q182 0 281.5 91t99.5 257q0 127 -84 197t-219 70h-156l-119 -519q-4 -25 -4 -30zM530 803h164q164 0 257 84t93 229q0 113 -61 168t-186 55h-144z" />
<glyph unicode="C" horiz-adv-x="1380" d="M150 610q0 217 103 415t286.5 318.5t410.5 120.5t473 -123l-82 -348h-73q0 190 -85 284.5t-241 94.5q-168 0 -298 -112.5t-199.5 -294t-69.5 -377.5q0 -143 48 -254t139 -173.5t214 -62.5q135 0 251 70t226 240l70 -43q-113 -207 -261.5 -301.5t-338.5 -94.5 q-172 0 -302 84t-200.5 230.5t-70.5 326.5z" />
<glyph unicode="D" horiz-adv-x="1511" d="M-20 0l16 72l39 4q63 8 104 32.5t54 81.5l243 1053q4 20 4 31q0 41 -29.5 59.5t-80.5 24.5l-35 4l16 72h598q164 0 289 -72t195.5 -206t70.5 -318q0 -229 -110.5 -421t-299 -304.5t-411.5 -112.5h-663zM385 160q0 -39 28.5 -52.5t88.5 -13.5h94q205 0 350.5 108.5 t220 284t74.5 373.5q0 227 -91 353t-298 126h-197l-266 -1149q-4 -25 -4 -30z" />
<glyph unicode="E" horiz-adv-x="1339" d="M-20 0l16 72l39 4q63 8 104 32.5t54 81.5l243 1053q4 25 4 33q0 70 -110 82l-35 4l16 72h1073l-79 -342h-74v19q-1 88 -17 134q-18 51 -70 72.5t-161 21.5h-328l-129 -555h224q100 0 148 34t93 124h72l-98 -430h-68q-4 96 -37 137t-131 41h-223l-117 -500q-4 -25 -4 -30 q0 -39 28.5 -52.5t88.5 -13.5h190q133 0 206 21.5t128 85t125 202.5h80l-123 -403h-1128z" />
<glyph unicode="F" horiz-adv-x="1247" d="M-20 0l16 72l39 4q63 8 104 32.5t54 81.5l243 1053q4 25 4 33q0 70 -110 82l-35 4l16 72h1059l-80 -351h-73q0 106 -18.5 158.5t-71 75t-158.5 22.5h-314l-131 -571h215q100 0 148.5 34t93.5 124h72l-99 -426h-67q-4 94 -38 134t-132 40h-215l-113 -484q-4 -25 -4 -34 q0 -41 32 -56.5t107 -23.5l35 -4l-16 -72h-563z" />
<glyph unicode="G" horiz-adv-x="1488" d="M152 610q0 231 106.5 428t293.5 311.5t417 114.5q121 0 251 -32.5t242 -90.5l-82 -348h-73v8q0 189 -89 279q-92 92 -249 92q-176 0 -311.5 -110.5t-208 -294t-72.5 -394.5q0 -221 99 -364t302 -143q131 0 246 77l78 344q6 25 6 41q0 35 -26.5 49.5t-96.5 22.5l-53 6 l18 72h527l-17 -72l-33 -4q-57 -6 -83.5 -28.5t-40.5 -86.5l-93 -385q-102 -68 -224 -100.5t-228 -32.5q-197 0 -333 83t-204.5 228.5t-68.5 329.5z" />
<glyph unicode="H" horiz-adv-x="1632" d="M-20 0l16 72l39 4q63 8 104 32.5t54 81.5l243 1053q4 25 4 33q0 70 -110 82l-35 4l16 72h537l-17 -72l-38 -4q-63 -6 -104.5 -32t-55.5 -83l-105 -452h707l104 452q4 25 4 33q0 70 -110 82l-35 4l16 72h537l-16 -72l-39 -4q-63 -6 -104.5 -32t-55.5 -83l-244 -1053 q-4 -20 -4 -30q0 -41 30 -59.5t83 -24.5l35 -4l-17 -72h-536l16 72l39 4q63 8 104 32.5t54 81.5l116 506h-706l-117 -506q-4 -20 -4 -30q0 -41 29.5 -59.5t83.5 -24.5l34 -4l-16 -72h-536z" />
<glyph unicode="I" horiz-adv-x="749" d="M-10 0l16 72l39 4q63 8 104 32.5t54 81.5l243 1053q4 25 5 33q0 70 -111 82l-35 4l17 72h536l-16 -72l-39 -4q-63 -6 -104.5 -32t-55.5 -83l-244 -1053q-4 -20 -4 -30q0 -41 30 -59.5t83 -24.5l35 -4l-17 -72h-536z" />
<glyph unicode="J" horiz-adv-x="1005" d="M-59 135q20 47 61 74t86 27q39 0 63.5 -18.5t47.5 -55.5q37 -59 62.5 -85t68.5 -26q59 0 102 59.5t80 215.5l211 917q4 20 4 31q0 41 -29.5 59.5t-81.5 24.5l-34 4l16 72h541l-17 -72l-39 -4q-66 -8 -106.5 -33t-52.5 -82l-211 -913q-39 -170 -153 -264.5t-269 -94.5 q-129 0 -218 48.5t-132 115.5z" />
<glyph unicode="K" horiz-adv-x="1482" d="M-20 0l16 72l39 4q63 8 104 32.5t54 81.5l243 1053q4 25 4 33q0 70 -110 82l-35 4l16 72h537l-17 -72l-38 -4q-63 -6 -104.5 -32t-55.5 -83l-125 -543l590 500q90 76 90 115q0 41 -90 47l16 72h475l-16 -72q-92 -16 -186.5 -72.5t-219.5 -159.5l-360 -299l328 -573 q53 -96 96 -135t110 -47l31 -4l-16 -72h-506l16 72l41 4q70 8 70 47q0 25 -23 65l-292 523l-189 -156l-84 -365q-4 -20 -4 -30q0 -41 29.5 -59.5t83.5 -24.5l34 -4l-16 -72h-536z" />
<glyph unicode="L" horiz-adv-x="1259" d="M-20 0l16 72l39 4q63 8 104 32.5t54 81.5l243 1053q4 25 4 33q0 70 -110 82l-35 4l16 72h537l-17 -72l-38 -4q-63 -6 -104.5 -32t-55.5 -83l-244 -1053q-4 -25 -4 -30q0 -39 28.5 -52.5t88.5 -13.5h125q129 0 205.5 28t137 98.5t134.5 213.5h80l-133 -434h-1071z" />
<glyph unicode="M" horiz-adv-x="1933" d="M-20 0l16 72l33 4q66 8 109.5 37.5t62.5 105.5l235 1024q4 25 4 33q0 70 -110 82l-35 4l16 72h379l215 -1155l756 1155h391l-16 -72l-39 -4q-66 -8 -107 -33t-53 -82l-244 -1053q-4 -20 -4 -30q0 -41 30 -59.5t83 -24.5l35 -4l-17 -72h-536l16 72l39 4q63 6 103 31.5 t55 82.5l233 1002l-786 -1192h-72l-223 1198l-225 -979q-6 -27 -7 -49q0 -47 29 -66.5t82 -27.5l31 -4l-17 -72h-462z" />
<glyph unicode="N" horiz-adv-x="1597" d="M-29 0l17 72l35 4q66 8 108.5 35.5t58.5 97.5l238 1034q4 25 4 33q0 70 -110 82l-35 4l16 72h328l563 -1069l197 845q6 29 6 50q0 51 -30 70.5t-83 27.5l-29 4l17 72h463l-17 -72l-35 -4q-68 -8 -110.5 -38t-61.5 -108l-280 -1222h-57l-635 1198l-226 -979q-6 -25 -6 -43 q0 -45 30 -63.5t83 -26.5l31 -4l-17 -72h-463z" />
<glyph unicode="O" horiz-adv-x="1542" d="M150 616q0 209 102 406t280.5 319.5t389.5 122.5q168 0 297 -84t200.5 -231.5t71.5 -329.5q0 -215 -102.5 -411.5t-279.5 -317.5t-388 -121q-168 0 -298 84t-201.5 231.5t-71.5 331.5zM375 582q0 -221 88 -371t256 -150q158 0 282.5 116t194.5 301.5t70 379.5 q0 219 -88 366.5t-256 147.5q-158 0 -283 -114.5t-194.5 -298t-69.5 -377.5z" />
<glyph unicode="P" horiz-adv-x="1255" d="M-20 0l16 72l39 4q63 8 104 32.5t54 81.5l243 1053q4 25 4 33q0 70 -110 82l-35 4l16 72h570q108 0 205.5 -43t158 -128t60.5 -204q0 -139 -73 -245.5t-204 -164t-301 -57.5h-244l-94 -402q-4 -25 -4 -34q0 -41 32 -56.5t107 -23.5l35 -4l-16 -72h-563zM504 686h217 q184 0 280.5 104.5t96.5 280.5q0 137 -79 202.5t-212 65.5h-152z" />
<glyph unicode="Q" horiz-adv-x="1542" d="M150 616q0 209 102 406t280.5 319.5t389.5 122.5q168 0 297 -84t200.5 -231.5t71.5 -329.5q0 -176 -70.5 -343t-197.5 -292t-287 -178l61 -53q76 -68 150 -99.5t168 -31.5q74 0 139 22l-10 -51q-152 -88 -299 -88q-164 0 -316 137l-139 127q-160 8 -282.5 94.5 t-190 230.5t-67.5 322zM375 582q0 -222 88 -371.5t256 -149.5q158 0 282.5 116t194.5 301.5t70 379.5q0 219 -88 366.5t-256 147.5q-158 0 -283 -114.5t-194.5 -298t-69.5 -377.5z" />
<glyph unicode="R" horiz-adv-x="1374" d="M-20 0l16 72l39 4q63 8 104 32.5t54 81.5l243 1053q4 25 4 33q0 70 -110 82l-35 4l16 72h563q178 0 299 -88.5t121 -247.5q0 -162 -118.5 -274.5t-313.5 -145.5l189 -383q59 -121 100 -164t106 -55l23 -4l-16 -72h-273q-63 104 -123 233l-149 320q-31 68 -52.5 86 t-66.5 18h-102l-109 -467q-4 -20 -4 -30q0 -41 29.5 -59.5t83.5 -24.5l34 -4l-16 -72h-536zM520 752h160q207 0 308.5 91t101.5 251q0 127 -73 186t-190 59h-172z" />
<glyph unicode="S" horiz-adv-x="1126" d="M47 102l105 396h77q-2 -20 -2 -60q0 -172 81 -274.5t233 -102.5q123 0 206.5 75t83.5 200q0 82 -46 143.5t-152 141.5l-113 84q-129 96 -191.5 177t-62.5 187q0 119 63.5 209t169 138t226.5 48q111 0 225.5 -31.5t196.5 -70.5l-88 -342h-74v27q0 325 -280 325 q-106 0 -181 -62.5t-75 -168.5q0 -76 40.5 -132.5t161.5 -146.5l107 -80q135 -102 196.5 -187t61.5 -192q0 -129 -65.5 -227t-179.5 -152.5t-253 -54.5q-137 0 -260 40t-211 93z" />
<glyph unicode="T" horiz-adv-x="1409" d="M203 1069l119 365h1204l-58 -365h-73q-10 115 -33 169t-75 77.5t-159 23.5h-131l-266 -1149q-4 -20 -4 -30q0 -41 29.5 -59.5t83.5 -24.5l34 -4l-16 -72h-536l16 72l39 4q63 8 104 32.5t54 81.5l266 1149h-123q-106 0 -170 -23.5t-113 -78.5t-112 -168h-80z" />
<glyph unicode="U" horiz-adv-x="1529" d="M233 381q0 80 21 164l162 698q4 25 4 33q0 70 -111 82l-35 4l17 72h551l-17 -72l-43 -6q-76 -10 -116.5 -36t-57.5 -93l-162 -705q-16 -76 -16 -127q0 -145 89 -221t241 -76q160 0 257 93.5t142 289.5l172 736q6 29 6 47q0 45 -27.5 65.5t-86.5 28.5l-29 4l16 72h459 l-16 -72l-35 -4q-72 -8 -112 -39t-56 -102l-178 -758q-53 -227 -190.5 -358.5t-360.5 -131.5q-236 0 -362 108.5t-126 303.5z" />
<glyph unicode="V" horiz-adv-x="1406" d="M215 1362l16 72h517l-17 -72l-39 -4q-72 -6 -102.5 -28.5t-30.5 -76.5q0 -23 2 -34l119 -916l561 914q33 51 33 79q0 27 -24.5 40.5t-80.5 21.5l-30 4l16 72h451l-17 -72l-26 -4q-66 -10 -106 -42t-93 -114l-768 -1216h-61l-166 1218q-10 78 -39 111t-92 43z" />
<glyph unicode="W" horiz-adv-x="2072" d="M215 1362l16 72h508l-16 -72l-39 -4q-74 -6 -104.5 -29.5t-30.5 -81.5q0 -18 2 -28l98 -906l475 797l-10 94q-8 78 -36.5 110t-92.5 44l-22 4l16 72h506l-17 -72l-38 -4q-82 -8 -111 -37q-24 -24 -24 -78q0 -11 1 -24l82 -912l533 910q31 55 31 83q0 25 -24 38.5 t-75 19.5l-35 4l17 72h446l-16 -72l-27 -4q-68 -10 -108.5 -42t-89.5 -114l-734 -1216h-61l-94 946l-572 -946h-61l-141 1218q-8 78 -37 111t-92 43z" />
<glyph unicode="X" horiz-adv-x="1505" d="M-57 0l14 72l25 4q125 23 251 162l463 495l-219 469q-39 82 -66.5 113t-93.5 43l-20 4l16 72h535l-19 -72l-41 -4q-68 -6 -99.5 -23.5t-31.5 -54.5q0 -31 17 -63l172 -386l356 386q57 63 58 94q0 39 -89 47l-34 4l16 72h473l-16 -72l-23 -4q-70 -12 -128 -49t-128 -111 l-434 -457l246 -510q35 -74 76 -107.5t110 -47.5l21 -4l-15 -72h-532l14 72l41 4q57 4 84 20.5t27 48.5q0 31 -21 72l-200 422l-388 -422q-47 -53 -47 -84q0 -47 97 -57l36 -4l-14 -72h-489z" />
<glyph unicode="Y" horiz-adv-x="1284" d="M215 1362l16 72h510l-16 -72l-43 -4q-70 -6 -104.5 -27.5t-34.5 -62.5q0 -16 10 -51l164 -494l387 491q41 53 41 82q0 27 -27.5 41.5t-81.5 20.5l-35 4l17 72h465l-17 -72l-24 -4q-63 -10 -116.5 -51t-121.5 -125l-440 -545l-105 -447q-4 -25 -4 -30q0 -41 30 -59.5 t83 -24.5l35 -4l-17 -72h-536l16 72l39 4q63 6 103.5 31.5t54.5 82.5l100 426l-201 586q-27 82 -52 114t-74 42z" />
<glyph unicode="Z" horiz-adv-x="1312" d="M-25 0l15 61l1169 1278h-438q-106 0 -175 -25.5t-121 -84t-112 -168.5h-80l115 373h1096l-14 -62l-1172 -1278h397q141 0 220 28t134.5 92.5t133.5 203.5h80l-125 -418h-1123z" />
<glyph unicode="[" horiz-adv-x="817" d="M88 -264l418 1802h428l-21 -86h-251l-377 -1630h252l-21 -86h-428z" />
<glyph unicode="\" horiz-adv-x="911" d="M322 1516h116l283 -1803h-111z" />
<glyph unicode="]" horiz-adv-x="817" d="M-55 -264l20 86h252l377 1630h-252l20 86h429l-418 -1802h-428z" />
<glyph unicode="^" horiz-adv-x="1239" d="M90 532l475 902h115l475 -902h-129l-403 773l-404 -773h-129z" />
<glyph unicode="_" horiz-adv-x="1155" d="M-193 -297l25 102h1167l-24 -102h-1168z" />
<glyph unicode="`" horiz-adv-x="1228" d="M674 1479l4 16h189l57 -344h-57z" />
<glyph unicode="a" horiz-adv-x="1132" d="M59 297q0 166 89.5 338t228.5 284.5t278 112.5q55 0 113.5 -17.5t97.5 -49.5l146 65h18l-188 -801q-16 -61 -17 -94q0 -43 35 -43q59 0 170 144l41 -33q-90 -133 -156.5 -178t-140.5 -45q-127 0 -127 143q0 39 15 106l38 170h-10q-94 -197 -189 -310.5t-216 -113.5 q-102 0 -164 82t-62 240zM252 299q0 -195 102 -195q76 0 167 115t167 282t109 306l12 49q-20 45 -60 72.5t-96 27.5q-100 0 -193 -96t-150.5 -249.5t-57.5 -311.5z" />
<glyph unicode="b" horiz-adv-x="1089" d="M88 170l242 1049q8 33 8 63q0 39 -23.5 57.5t-85.5 32.5l13 51l315 93h18l-206 -908h10q92 193 193.5 308.5t222.5 115.5q108 0 172.5 -81t64.5 -240q0 -166 -91 -338t-233.5 -285t-283.5 -113q-123 0 -211 55.5t-125 139.5zM262 158q20 -47 63.5 -77t102.5 -30 q104 0 199.5 96.5t154 250t58.5 311.5q0 98 -27 146t-86 48q-78 0 -172 -115.5t-173 -281.5t-110 -305z" />
<glyph unicode="c" horiz-adv-x="890" d="M74 375q0 152 73.5 306.5t199.5 253.5t269 99q98 0 173 -38t106 -105q-18 -41 -49 -65.5t-70 -24.5q-33 0 -52 16.5t-42 54.5q-25 43 -47.5 63.5t-67.5 20.5q-78 0 -150.5 -85t-117.5 -216t-45 -260q0 -135 57.5 -207.5t155.5 -72.5q78 0 148.5 49t146.5 153l49 -30 q-170 -309 -416 -310q-147 0 -234 109t-87 289z" />
<glyph unicode="d" horiz-adv-x="1138" d="M59 297q0 168 90.5 340t232.5 283.5t286 111.5q106 0 192 -47l55 242q8 41 9 55q0 39 -25 57.5t-86 32.5l12 51l318 93h18l-297 -1287q-16 -61 -16 -94q0 -43 35 -43q59 1 170 144l41 -33q-90 -133 -157 -178t-140 -45q-127 0 -127 143q0 39 14 106l39 170h-10 q-92 -193 -193.5 -308.5t-222.5 -115.5q-109 0 -173.5 81t-64.5 241zM252 299q0 -98 27.5 -146.5t87.5 -48.5q75 0 168.5 116t173 283t110.5 304l10 47q-23 45 -64.5 73.5t-100.5 28.5q-104 0 -199.5 -97t-154 -249.5t-58.5 -310.5z" />
<glyph unicode="e" horiz-adv-x="888" d="M74 375q0 152 74.5 305.5t198.5 252.5t263 99q102 0 173 -56t71 -142q0 -166 -182.5 -250t-413.5 -103q-4 -45 -4 -69q0 -150 59.5 -222.5t157.5 -72.5q146 0 289 188l47 -31q-164 -297 -408 -297q-150 0 -237.5 110t-87.5 288zM268 545q176 16 299 90t123 201 q0 55 -25.5 84.5t-74.5 29.5q-109 0 -199 -120.5t-123 -284.5z" />
<glyph unicode="f" horiz-adv-x="649" d="M-362 -328q18 33 46.5 54.5t63.5 21.5q31 0 50.5 -14.5t41.5 -44.5q23 -33 41.5 -48.5t42.5 -15.5q41 0 73 39t61.5 131t62.5 258l170 848h-164l14 64l172 49l15 73q45 221 160.5 328t256.5 107q105 0 171.5 -38t89.5 -89q-16 -37 -45 -57.5t-62 -20.5q-29 0 -49.5 13 t-46.5 46q-37 43 -57.5 59.5t-51.5 16.5q-68 0 -105.5 -78t-76.5 -264l-20 -102h239l-51 -107h-211l-184 -881q-49 -236 -154.5 -349t-249.5 -113q-94 0 -159.5 35.5t-83.5 78.5z" />
<glyph unicode="g" horiz-adv-x="966" d="M-82 -190q0 84 70.5 148.5t189.5 98.5q-108 58 -108 139q0 130 217 201q-63 41 -102.5 108.5t-39.5 145.5q0 104 56.5 191.5t148.5 137.5t197 50q92 0 170 -41h330l-54 -106h-194q65 -83 65 -180q0 -99 -58 -182t-152.5 -131t-200.5 -48q-70 0 -136 35 q-102 -49 -102 -109q0 -33 39 -55.5t139 -50.5l92 -27q180 -53 257 -104t77 -146q0 -90 -66.5 -165.5t-179 -119.5t-245.5 -44q-127 0 -219.5 33.5t-141.5 91t-49 129.5zM80 -152q0 -55 37 -104t107.5 -81t168.5 -32q119 0 195 53.5t76 133.5q0 55 -49.5 85.5t-176.5 65.5 l-108 31q-47 12 -117 39q-70 -33 -101.5 -79t-31.5 -112zM322 637q0 -100 36.5 -160.5t102.5 -60.5q61 0 113.5 47t83 123t30.5 155q0 100 -36 157.5t-105 57.5q-57 0 -109.5 -45t-84 -118.5t-31.5 -155.5z" />
<glyph unicode="h" horiz-adv-x="1148" d="M63 0l285 1227q8 41 8 55q0 39 -24.5 57.5t-85.5 32.5l12 51l317 93h19l-213 -920h10q104 219 236.5 329.5t246.5 110.5q82 0 118 -40t36 -115q0 -76 -29 -181l-122 -471q-16 -61 -17 -94q0 -23 7 -33t26 -10q59 0 170 144l41 -33q-90 -133 -156.5 -178t-140.5 -45 q-63 0 -95 36.5t-32 102.5q0 45 16 110l125 478q25 92 25 135q0 33 -16.5 47t-51.5 14q-66 0 -162 -84t-190 -255t-150 -419l-32 -145h-181z" />
<glyph unicode="i" horiz-adv-x="600" d="M115 123q0 39 14 106l119 514q8 41 8 54q0 39 -24.5 57t-86.5 33l13 51l317 92h19l-185 -801q-16 -61 -16 -94q0 -43 35 -43q59 0 170 144l41 -33q-90 -133 -157 -178t-140 -45q-127 0 -127 143zM309 1339q0 51 38 88t91 37t91 -36.5t38 -88.5q0 -49 -40 -87t-89 -38 q-53 0 -91 37t-38 88z" />
<glyph unicode="j" horiz-adv-x="565" d="M-381 -328q41 76 113 76q31 0 49 -14.5t41 -44.5q23 -33 41 -48.5t43 -15.5q37 0 62.5 33t47 103.5t54.5 207.5l178 774q8 41 8 56q0 39 -24.5 56t-86.5 32l13 51l317 92h19l-242 -1048q-51 -221 -153.5 -322.5t-233.5 -101.5q-92 0 -158.5 32.5t-87.5 81.5zM309 1339 q0 51 38 88t91 37t91 -36.5t38 -88.5q0 -49 -40 -87t-89 -38q-53 0 -91 37t-38 88z" />
<glyph unicode="k" horiz-adv-x="1052" d="M63 0l285 1227q8 45 8 55q0 39 -24.5 57.5t-85.5 32.5l12 51l317 93h19l-248 -1072h10q141 272 270.5 429t256.5 157q51 0 89 -19.5t62 -49.5q-18 -66 -51 -98t-72 -32q-27 0 -71 17q-41 18 -78 18t-75 -24.5t-87 -91.5l-35 -50l129 -354q47 -131 74 -181t63 -50 q62 0 154 121l41 -33q-145 -221 -270 -221q-47 0 -80 27.5t-63.5 90t-73.5 183.5l-86 239q-145 -252 -209 -522h-181z" />
<glyph unicode="l" horiz-adv-x="557" d="M88 121q0 37 14 104l232 1002q8 41 8 55q0 39 -24.5 57.5t-86.5 32.5l13 51l317 93h19l-297 -1287q-16 -61 -17 -94q0 -43 35 -43q59 0 170 144l41 -33q-90 -133 -156.5 -178t-140.5 -45q-127 0 -127 141z" />
<glyph unicode="m" horiz-adv-x="1714" d="M76 0l172 741q8 41 8 56q0 39 -24.5 57t-86.5 33l13 51l317 92h19l-101 -434h10q100 221 225.5 330.5t237.5 109.5q82 0 117 -40t35 -115q0 -70 -27 -181l-24 -104h10q102 221 225 330.5t236 109.5q82 0 117.5 -40t35.5 -115q0 -76 -28 -181l-121 -471q-16 -61 -17 -94 q0 -23 7.5 -33t25.5 -10q59 0 170 144l41 -33q-90 -133 -156.5 -178t-140.5 -45q-63 0 -95 36.5t-32 102.5q0 45 17 110l122 478q27 106 27 141q0 31 -14.5 43t-46.5 12q-66 0 -158 -84t-181 -252t-145 -407l-37 -160h-180l164 707q25 113 25 143q0 29 -13.5 41t-46.5 12 q-66 0 -159 -85t-183 -255t-145 -411l-35 -152h-180z" />
<glyph unicode="n" horiz-adv-x="1161" d="M76 0l172 741q8 41 8 56q0 39 -24.5 57t-86.5 33l13 51l317 92h19l-101 -434h10q104 219 236.5 329.5t247.5 110.5q82 0 117.5 -40t35.5 -115q0 -76 -28 -181l-123 -471q-16 -61 -17 -94q0 -23 7.5 -33t25.5 -10q59 0 170 144l41 -33q-90 -133 -156.5 -178t-140.5 -45 q-63 0 -95 36.5t-32 102.5q0 45 17 110l125 478q24 88 24 132q0 36 -16.5 50t-50.5 14q-66 0 -162.5 -84t-189.5 -255t-150 -419l-33 -145h-180z" />
<glyph unicode="o" horiz-adv-x="1056" d="M78 422q0 160 80 300t205.5 225t254.5 85q94 0 177.5 -55t133.5 -156.5t50 -232.5q0 -160 -80 -301.5t-207 -226.5t-256 -85q-94 0 -176 56.5t-132 158t-50 232.5zM276 348q0 -133 42 -212t131 -79q96 0 171.5 90.5t117.5 231.5t42 287q0 135 -42 209.5t-130 74.5 q-96 0 -172 -89t-118 -229t-42 -284z" />
<glyph unicode="p" horiz-adv-x="1107" d="M-168 -430l16 68l39 4q55 6 83 29.5t42 84.5l228 987q8 41 8 56q0 39 -24.5 57t-86.5 33l13 51l317 92h18l-98 -424h10q94 195 194.5 309.5t221.5 114.5q109 0 173.5 -81t64.5 -240q0 -166 -90.5 -339t-232.5 -285t-284 -112q-115 0 -194 45l-60 -264q-6 -29 -6 -49 q0 -33 17.5 -47t60.5 -18l35 -4l-16 -68h-449zM281 158q23 -51 66.5 -79t98.5 -28q105 0 200 97.5t153.5 250t58.5 312.5q0 192 -109 192h-1q-80 0 -174.5 -115.5t-173 -282.5t-109.5 -304z" />
<glyph unicode="q" horiz-adv-x="1101" d="M59 297q0 168 90.5 340t232.5 283.5t284 111.5q61 0 120.5 -16.5t100.5 -50.5l145 65h19l-295 -1274q-8 -41 -8 -51q0 -31 18 -45t61 -18l35 -4l-16 -68h-451l17 68l39 4q55 6 82.5 30.5t41.5 85.5l148 641h-10q-92 -193 -193.5 -308.5t-222.5 -115.5q-109 0 -173.5 81 t-64.5 241zM252 299q0 -98 27.5 -146.5t87.5 -48.5q75 0 168.5 115t172 282t111.5 306l10 47q-23 47 -64.5 74.5t-100.5 27.5q-104 0 -199.5 -97t-154 -249.5t-58.5 -310.5z" />
<glyph unicode="r" horiz-adv-x="839" d="M76 0l172 741q8 41 8 56q0 39 -24.5 57t-86.5 33l13 51l317 92h19l-123 -534h10q61 152 109.5 251t127 190t170.5 91q46 0 83.5 -18.5t62.5 -42.5q-20 -66 -54 -103t-75 -37q-25 0 -62 13q-37 12 -61 12q-59 0 -117 -92q-84 -137 -173 -346t-136 -414h-180z" />
<glyph unicode="s" horiz-adv-x="749" d="M2 158q42 69 105 69h2q31 0 50 -15t42 -48q39 -59 72.5 -86t86.5 -27t89 40t36 97q0 55 -31.5 104.5t-117.5 147.5l-62 70q-70 80 -96 130t-26 116q0 70 42 134t114.5 103t158.5 39q96 0 170 -41t94 -94q-16 -39 -45 -57.5t-63 -18.5q-25 0 -44.5 12.5t-48.5 43.5 q-39 45 -63.5 61t-63.5 16q-45 0 -75.5 -34.5t-30.5 -83.5q0 -45 22.5 -82t104.5 -129l61 -70q76 -84 112 -146.5t36 -127.5q0 -74 -40 -144.5t-113.5 -116t-172.5 -45.5q-94 0 -182 46.5t-123 136.5z" />
<glyph unicode="t" horiz-adv-x="684" d="M123 127q0 49 16 121l152 657h-158l14 66q109 39 191 109.5t143 181.5h74l-59 -254h233l-45 -103h-213l-156 -676q-8 -35 -8 -67q0 -55 43 -56q41 0 98.5 37t120.5 109l41 -33q-102 -139 -186 -189t-166 -50q-135 0 -135 147z" />
<glyph unicode="u" horiz-adv-x="1206" d="M80 805q90 135 157.5 179t141.5 44q61 0 93 -36t32 -103q0 -47 -17 -113l-125 -471q-24 -88 -24 -132q0 -36 13.5 -49t43.5 -13q66 0 159 91t179 248.5t133 348.5l49 209h181l-181 -779q-16 -61 -16 -94q0 -43 35 -43q59 0 170 144l41 -33q-90 -133 -156.5 -178 t-140.5 -45q-127 0 -127 143q0 39 14 106l45 191h-10q-117 -225 -232.5 -335t-224.5 -110q-157 0 -157 158q0 76 28 178l125 473q12 49 13 80q0 49 -35 49q-33 0 -72 -34.5t-94 -106.5z" />
<glyph unicode="v" horiz-adv-x="923" d="M25 887l12 51l233 94h19l139 -848q127 145 221 293t94 252q0 39 -13 64.5t-40 56.5q-20 27 -29.5 43t-9.5 39q0 37 39 65.5t101 38.5q104 -53 104 -188q0 -133 -107.5 -308t-243.5 -327t-218 -221h-37l-127 751q-12 80 -39 110t-98 34z" />
<glyph unicode="w" horiz-adv-x="1411" d="M31 887l12 51l240 94h18l82 -729l389 705h39l131 -822q113 139 197 287t84 250q0 43 -13.5 69.5t-40.5 59.5q-20 25 -29.5 40t-9.5 38q0 37 38 67.5t102 38.5q53 -24 78.5 -76.5t25.5 -119.5q0 -127 -100 -303.5t-227 -333t-195 -211.5h-47l-117 698l-389 -698h-55 l-88 751q-10 78 -33 107t-92 37z" />
<glyph unicode="x" horiz-adv-x="999" d="M-61 41q37 125 118 125q29 0 56 -10q41 -10 61 -11q53 0 110.5 74t129.5 227l-90 271q-27 78 -47.5 113.5t-52.5 49.5q-27 12 -74 11h-15l15 51l223 90h18l135 -397q78 150 135.5 234.5t112.5 122.5t121 38q45 0 84 -17.5t57 -41.5q-37 -125 -118 -125q-29 0 -56 10 q-41 10 -61 10q-56 0 -114 -75.5t-132 -235.5l72 -209q47 -133 72.5 -183t62.5 -50q35 0 71.5 30.5t84.5 92.5l38 -33q-154 -221 -272 -221q-47 0 -81 27.5t-64.5 91t-69.5 182.5l-27 82q-111 -213 -189.5 -298t-172.5 -85q-45 0 -84 17t-57 42z" />
<glyph unicode="y" horiz-adv-x="942" d="M-248 -369q27 55 62.5 86t87.5 31q27 0 48 -6t27 -8q49 -16 84 -17q51 0 99.5 34t128.5 112q25 23 73 76l-176 753q-18 80 -34.5 118t-45 55.5t-81.5 21.5l12 51l237 94h19l205 -921q111 154 182.5 309t71.5 266q0 55 -16.5 91t-45.5 71q-20 27 -29.5 43t-9.5 39 q0 37 39 67.5t101 38.5q53 -24 80.5 -80.5t27.5 -124.5q0 -117 -82 -309t-215 -392t-274 -337q-123 -121 -214 -174t-190 -53q-57 0 -103 20.5t-69 44.5z" />
<glyph unicode="z" horiz-adv-x="847" d="M-47 23l717 835h-267q-72 0 -110.5 -11t-65 -39t-59.5 -89h-57l104 289h668l-15 -50l-682 -792q49 16 101 16q57 0 147 -28q31 -10 63.5 -17.5t59.5 -7.5q55 0 92 29.5t86 109.5l41 -18q-63 -135 -121.5 -204t-146.5 -69q-39 0 -75 8.5t-83 24.5q-37 12 -78 21.5t-79 9.5 q-96 0 -209 -66z" />
<glyph unicode="{" horiz-adv-x="813" d="M145 598l17 78l28 4q59 8 99.5 47t74 124t70.5 243q41 178 96.5 273t133 133t200.5 38h66l-21 -86h-63q-82 0 -128 -44t-71 -157l-49 -219q-41 -184 -104.5 -280.5t-198.5 -114.5q78 -29 110.5 -83t32.5 -134q0 -74 -32 -219l-41 -178q-12 -59 -13 -97q0 -57 29 -80.5 t88 -23.5h63l-20 -86h-66q-120 0 -183.5 54t-63.5 187q0 88 26 203q41 178 41 275q0 70 -22.5 100.5t-73.5 38.5z" />
<glyph unicode="|" horiz-adv-x="675" d="M344 -291v1827h111v-1827h-111z" />
<glyph unicode="}" horiz-adv-x="813" d="M-55 -264l20 86h64q82 0 128 44t70 157l49 219q41 184 104.5 280t199.5 115q-78 29 -111 83t-33 134q0 74 33 219l41 178q12 59 12 97q0 57 -28.5 80.5t-87.5 23.5h-64l20 86h66q121 0 184.5 -54t63.5 -188q0 -88 -27 -202q-41 -178 -41 -275q0 -70 22.5 -100.5 t74.5 -38.5l24 -4l-16 -78l-29 -4q-59 -8 -99 -47t-74 -124t-71 -243q-41 -178 -96 -273t-133 -133t-201 -38h-65z" />
<glyph unicode="~" d="M184 569q27 129 98.5 195.5t166.5 66.5q49 0 102 -16t121 -45q63 -27 104 -39t76 -12q51 0 82 29.5t47 82.5h104q-27 -129 -98.5 -195.5t-165.5 -66.5q-49 0 -102 16.5t-121 45.5q-63 27 -104 39t-76 12q-51 0 -82 -29.5t-47 -83.5h-105z" />
<glyph unicode="&#xa1;" horiz-adv-x="501" d="M-51 -342q0 45 37 152l278 802h55l-106 -884q-10 -82 -44 -127t-108 -45q-47 0 -79.5 29.5t-32.5 72.5zM203 903q0 53 40 92t95 39t95 -39t40 -92t-40 -92t-95 -39t-95 39t-40 92z" />
<glyph unicode="&#xa2;" horiz-adv-x="1069" d="M145 375q0 147 69 295.5t186.5 249t254.5 112.5l39 168h92l-38 -170q76 -10 133 -47t86 -92q-39 -84 -113 -84q-33 0 -53.5 16.5t-40.5 53.5q-21 37 -37 53l-191 -828h5q78 0 149.5 52.5t147.5 162.5l49 -30q-158 -287 -379 -307l-45 -191h-92l45 193q-125 20 -196 125.5 t-71 267.5zM322 395q0 -104 31.5 -173.5t90.5 -98.5l195 838q-80 0 -153.5 -86.5t-118.5 -218.5t-45 -261z" />
<glyph unicode="&#xa3;" d="M14 0l13 51q150 119 229.5 259.5t99.5 340.5h-159l22 94h143q2 23 3 68q0 201 59 347.5t166.5 223t249.5 76.5q155 0 253.5 -63.5t127.5 -149.5q-49 -78 -119 -78q-37 0 -59.5 18.5t-51.5 72.5q-37 66 -78 96t-100 30q-106 0 -162.5 -71.5t-75 -196.5t-18.5 -319 q0 -37 -2 -54h360l-22 -94h-348q-29 -166 -114 -280.5t-204 -202.5h391q111 0 167.5 13.5t95.5 54t94 137.5h57l-131 -373h-887z" />
<glyph unicode="&#xa4;" d="M154 264l174 174q-88 104 -88 242q0 135 86 242l-172 172l57 57l174 -174q102 84 240 84q137 0 239 -84l174 174l58 -57l-172 -172q86 -106 86 -242q0 -138 -88 -242l174 -174l-58 -57l-174 174q-104 -82 -239 -82t-240 82l-174 -174zM332 680q0 -80 39 -147.5 t106.5 -107.5t147.5 -40t147.5 40t106.5 107.5t39 147.5t-39 147.5t-106.5 107.5t-147.5 40t-147.5 -40t-106.5 -107.5t-39 -147.5z" />
<glyph unicode="&#xa5;" d="M129 414l23 94h329l33 143h-330l23 94h287l-146 457q-45 143 -117 156l-20 4l8 72h492l-17 -72l-39 -4q-133 -12 -133 -94q0 -23 8 -47l140 -463l334 460q49 70 49 97q0 39 -80 47l-35 4l16 72h416l-16 -72l-25 -4q-102 -16 -223 -174l-332 -439h297l-22 -94h-340 l-33 -143h340l-23 -94h-338l-51 -224q-4 -20 -4 -30q0 -41 29.5 -59.5t81.5 -24.5l34 -4l-16 -72h-534l16 72l39 4q66 8 106.5 32.5t53.5 81.5l51 224h-332z" />
<glyph unicode="&#xa6;" horiz-adv-x="671" d="M342 -287v776h111v-776h-111zM342 752v776h111v-776h-111z" />
<glyph unicode="&#xa7;" horiz-adv-x="1067" d="M61 -166q18 25 45 39t56 14q39 0 57.5 -19.5t42.5 -70.5q55 -115 162 -114q76 0 119 53t43 129q0 51 -27 100t-84 111l-133 139q-90 96 -135 171t-45 153q0 129 95 218t243 117l-6 7q-78 86 -114 143t-36 127q0 86 45 155.5t126 110.5t181 41q115 0 212.5 -59.5 t113.5 -157.5q-18 -25 -45 -39t-55 -14q-39 0 -57.5 19.5t-43.5 70.5q-55 115 -162 115q-76 0 -118.5 -53.5t-42.5 -129.5q0 -51 26.5 -100t83.5 -111l133 -139q90 -96 135.5 -171t45.5 -152q0 -129 -95.5 -218.5t-242.5 -117.5l6 -6q78 -86 113.5 -143.5t35.5 -127.5 q0 -86 -45 -155.5t-126 -110.5t-181 -41q-115 0 -212 59.5t-114 157.5zM322 588q0 -61 35.5 -120.5t107.5 -137.5l86 -92q98 31 154.5 95t56.5 154q0 62 -36 121.5t-108 136.5l-86 93q-98 -31 -154 -95.5t-56 -154.5z" />
<glyph unicode="&#xa8;" horiz-adv-x="1228" d="M530 1341q0 49 37 84t86 35t86 -34.5t37 -84.5q0 -49 -37 -83.5t-86 -34.5t-86 34.5t-37 83.5zM901 1341q0 49 37 84t86 35t86 -34.5t37 -84.5q0 -49 -37 -83.5t-86 -34.5t-86 34.5t-37 83.5z" />
<glyph unicode="&#xa9;" horiz-adv-x="1746" d="M172 717q0 203 100.5 373t273.5 270t378 100t377 -100t272 -271t100 -372q0 -203 -100 -374t-272.5 -271.5t-376.5 -100.5q-207 0 -379 100.5t-272.5 271.5t-100.5 374zM264 717q0 -180 89 -332t240.5 -242t330.5 -90q178 0 328.5 90t239.5 242t89 332q0 178 -89 330.5 t-239.5 241.5t-328.5 89t-330 -89t-241 -241.5t-89 -330.5zM483 705q0 137 63.5 243.5t170 164.5t229.5 58q164 0 297 -63v-238h-59q-35 115 -100.5 167.5t-149.5 52.5q-74 0 -138.5 -42t-103.5 -123t-39 -190q0 -164 87 -264t229 -100q166 0 268 155l57 -28 q-51 -111 -141 -180.5t-227 -69.5q-125 0 -225.5 57t-159 160.5t-58.5 239.5z" />
<glyph unicode="&#xaa;" horiz-adv-x="819" d="M152 913q0 127 67.5 255t173 212t209.5 84q43 0 86 -13t72 -38l114 51h15l-141 -602q-10 -47 -11 -67q0 -33 25 -33q41 0 125 106l31 -24q-68 -100 -118 -135t-108 -35q-96 0 -96 108q0 35 10 82l29 125h-8q-72 -147 -143.5 -232t-161.5 -85q-76 0 -123 61.5t-47 179.5z M303 915q0 -143 76 -143q55 0 122.5 86t124 210t81.5 228l10 39q-14 33 -44 52.5t-71 19.5q-74 0 -143.5 -72.5t-112.5 -187.5t-43 -232z" />
<glyph unicode="&#xab;" horiz-adv-x="1183" d="M152 535l2 10l505 405l58 -51l-387 -383l211 -383l-78 -43zM582 535l2 10l505 405l58 -51l-387 -383l211 -383l-78 -43z" />
<glyph unicode="&#xad;" horiz-adv-x="739" d="M90 524l33 152h563l-33 -152h-563z" />
<glyph unicode="&#xae;" horiz-adv-x="960" d="M176 1040q0 113 58.5 209.5t156.5 153.5t213 57t213 -57t156.5 -153.5t58.5 -209.5t-57 -210t-156.5 -154.5t-214.5 -57.5t-214 57.5t-156.5 155t-57.5 209.5zM252 1040q0 -96 48 -177t129 -128t175 -47t175 47t129 128t48 177q0 94 -48 175t-129 129.5t-175 48.5 t-175 -48.5t-129 -129t-48 -175.5zM412 815v27l10 2q16 4 23.5 12t7.5 27v331q0 18 -7.5 25.5t-23.5 11.5l-10 2v29h206q72 0 119 -34t47 -99q0 -45 -26.5 -79t-75.5 -48l74 -111q22 -34 35.5 -49.5t29.5 -17.5l13 -2v-27h-117q-49 72 -58 88l-34 60q-16 29 -28.5 37 t-33.5 8h-24v-125q0 -18 7 -26.5t23 -12.5l13 -2v-27h-170zM539 1059h59q92 0 92 84q0 86 -98 86h-53v-170z" />
<glyph unicode="&#xaf;" horiz-adv-x="1228" d="M518 1268l29 121h532l-28 -121h-533z" />
<glyph unicode="&#xb0;" horiz-adv-x="684" d="M264 1266q0 102 74 172.5t180 70.5t180 -70.5t74 -172.5q0 -104 -73.5 -174t-180.5 -70q-106 0 -180 69.5t-74 174.5zM360 1266q0 -68 46.5 -114t111.5 -46q66 0 112 46t46 114t-46 113.5t-112 45.5t-112 -46t-46 -113z" />
<glyph unicode="&#xb1;" d="M164 91v118h942v-118h-942zM164 703v118h407v412h127v-412h408v-118h-408v-412h-127v412h-407z" />
<glyph unicode="&#xb4;" horiz-adv-x="1228" d="M590 1151l211 344h209l-4 -16l-351 -328h-65z" />
<glyph unicode="&#xb6;" horiz-adv-x="1347" d="M219 954q0 141 75 251t202 169.5t278 59.5h690l-20 -95h-170l-356 -1544h-123l356 1544h-246l-356 -1544h-123l190 828h-18q-164 0 -271.5 85t-107.5 246z" />
<glyph unicode="&#xb7;" horiz-adv-x="497" d="M119 525q0 53 39.5 92t95.5 39q55 0 95 -39t40 -92t-40 -92t-95 -39q-56 0 -95.5 38.5t-39.5 92.5z" />
<glyph unicode="&#xb8;" horiz-adv-x="1228" d="M293 -387l36 45q61 -45 140 -45q45 0 69.5 20.5t24.5 55.5q0 80 -150 118l129 201h82l-75 -117q143 -67 143 -178q0 -76 -54.5 -125t-152.5 -49q-68 0 -118 23.5t-74 50.5z" />
<glyph unicode="&#xba;" horiz-adv-x="722" d="M162 1008q0 119 60.5 224t154.5 168.5t192 63.5q72 0 135.5 -41t101.5 -117.5t38 -175.5q0 -119 -60.5 -225t-156 -169.5t-193.5 -63.5q-72 0 -134 42t-100 118.5t-38 175.5zM317 950q0 -98 31 -156.5t94 -58.5q72 0 128.5 67.5t87 174t30.5 215.5q0 211 -125 211 q-72 0 -128 -67.5t-87 -173t-31 -212.5z" />
<glyph unicode="&#xbb;" horiz-adv-x="1181" d="M43 141l387 383l-211 383l78 43l311 -444l-2 -10l-506 -406zM473 141l387 383l-211 383l78 43l311 -444l-2 -10l-506 -406z" />
<glyph unicode="&#xbc;" horiz-adv-x="1581" d="M131 645l10 45l35 2q57 4 92 16.5t43 47.5l113 483q2 8 2 23q0 16 -10 22t-37 6h-98l8 39q160 47 272 113h51l-157 -686q-8 -37 19.5 -48.5t86.5 -15.5l33 -2l-12 -45h-451zM141 0l1280 1434h140l-1280 -1434h-140zM871 176l20 94l475 519h125l-118 -512h108l-43 -101 h-90l-41 -176h-135l41 176h-342zM973 277h262l88 381z" />
<glyph unicode="&#xbd;" horiz-adv-x="1673" d="M131 645l10 45l35 2q57 4 92 16.5t43 47.5l113 483q2 8 2 23q0 16 -10 22t-37 6h-98l8 39q160 47 272 113h51l-157 -686q-8 -37 19.5 -48.5t86.5 -15.5l33 -2l-12 -45h-451zM141 0l1280 1434h140l-1280 -1434h-140zM957 0l8 37l134 121q129 117 192.5 180.5t106.5 130 t43 127.5q0 51 -31 75.5t-84 24.5q-59 0 -103.5 -29.5t-87.5 -84.5l-43 26q35 76 110 136.5t181 60.5q102 0 156.5 -51t54.5 -129q0 -102 -88 -195.5t-254 -218.5l-96 -76l-21 -16h172q62 0 94.5 6t57.5 27.5t55 70.5h39l-78 -223h-518z" />
<glyph unicode="&#xbe;" horiz-adv-x="1603" d="M111 748q14 29 39.5 45t52.5 16t41 -11.5t30 -35.5q31 -41 56.5 -60.5t64.5 -19.5q53 0 87 42t34 105q0 76 -59.5 132.5t-143.5 66.5l11 41q92 16 163.5 63.5t71.5 122.5q0 39 -27.5 65t-80.5 26q-102 0 -172 -89l-43 29q39 68 103 116t163 48q92 0 145 -44t53 -112 q0 -76 -58 -130t-138 -85q67 -32 107 -84.5t40 -124.5q0 -70 -39 -125t-102.5 -85.5t-136.5 -30.5q-102 0 -171 38t-91 81zM163 0l1280 1434h140l-1280 -1434h-140zM894 176l20 94l475 519h125l-118 -512h108l-43 -101h-90l-41 -176h-135l41 176h-342zM996 277h262l88 381z " />
<glyph unicode="&#xbf;" horiz-adv-x="827" d="M-100 -133q0 94 45 171t114.5 136t182.5 139q123 86 168 133.5t71 116.5l19 49h63l-4 -49q-8 -88 -26.5 -142t-59.5 -102.5t-125 -117.5q-14 -12 -96 -79t-120 -134.5t-38 -143.5q0 -88 49.5 -148.5t130.5 -60.5q51 0 83 21.5t47.5 47.5t48.5 89q23 45 50 65.5t66 20.5 q37 0 70 -20.5t53 -46.5q-25 -61 -84 -121t-149 -97.5t-201 -37.5q-102 0 -184 43t-128 114.5t-46 153.5zM440 903q0 53 40 92t95 39q56 0 96 -39t40 -92t-40 -92t-96 -39q-55 0 -95 39t-40 92z" />
<glyph unicode="&#xc0;" horiz-adv-x="1409" d="M-100 0l16 72l27 4q66 10 105.5 42t92.5 113l768 1217h62l159 -1219q10 -80 41 -110.5t97 -42.5l24 -4l-16 -72h-518l16 72l39 4q72 6 100.5 28.5t28.5 75.5q0 23 -2 35l-29 225h-510l-137 -223q-31 -51 -31 -82q0 -25 24 -39t75 -20l35 -4l-17 -72h-450zM461 535h438 l-76 589zM735 1802l5 17h192l43 -271h-61z" />
<glyph unicode="&#xc1;" horiz-adv-x="1409" d="M-100 0l16 72l27 4q66 10 105.5 42t92.5 113l768 1217h62l159 -1219q10 -80 41 -110.5t97 -42.5l24 -4l-16 -72h-518l16 72l39 4q72 6 100.5 28.5t28.5 75.5q0 23 -2 35l-29 225h-510l-137 -223q-31 -51 -31 -82q0 -25 24 -39t75 -20l35 -4l-17 -72h-450zM461 535h438 l-76 589zM899 1548l190 271h226l-5 -17l-342 -254h-69z" />
<glyph unicode="&#xc2;" horiz-adv-x="1409" d="M-100 0l16 72l27 4q66 10 105.5 42t92.5 113l768 1217h62l159 -1219q10 -80 41 -110.5t97 -42.5l24 -4l-16 -72h-518l16 72l39 4q72 6 100.5 28.5t28.5 75.5q0 23 -2 35l-29 225h-510l-137 -223q-31 -51 -31 -82q0 -25 24 -39t75 -20l35 -4l-17 -72h-450zM461 535h438 l-76 589zM651 1548l276 271h189l145 -271h-80l-174 162l-258 -162h-98z" />
<glyph unicode="&#xc3;" horiz-adv-x="1409" d="M-100 0l16 72l27 4q66 10 105.5 42t92.5 113l768 1217h62l159 -1219q10 -80 41 -110.5t97 -42.5l24 -4l-16 -72h-518l16 72l39 4q72 6 100.5 28.5t28.5 75.5q0 23 -2 35l-29 225h-510l-137 -223q-31 -51 -31 -82q0 -25 24 -39t75 -20l35 -4l-17 -72h-450zM461 535h438 l-76 589zM629 1594q63 117 126.5 167t129.5 50q35 0 67.5 -13.5t79.5 -39.5q37 -23 64.5 -34.5t54.5 -11.5q76 0 135 101l64 -17q-63 -117 -126 -167t-128 -50q-35 0 -68 13.5t-80 40.5q-37 23 -64.5 34t-54.5 11q-78 0 -137 -101z" />
<glyph unicode="&#xc4;" horiz-adv-x="1409" d="M-100 0l16 72l27 4q66 10 105.5 42t92.5 113l768 1217h62l159 -1219q10 -80 41 -110.5t97 -42.5l24 -4l-16 -72h-518l16 72l39 4q72 6 100.5 28.5t28.5 75.5q0 23 -2 35l-29 225h-510l-137 -223q-31 -51 -31 -82q0 -25 24 -39t75 -20l35 -4l-17 -72h-450zM461 535h438 l-76 589zM639 1683q0 51 35.5 86t88.5 35t89 -34.5t36 -86.5q0 -51 -35.5 -85.5t-89.5 -34.5q-53 0 -88.5 34.5t-35.5 85.5zM1079 1683q0 51 36 86t89 35t89 -34.5t36 -86.5q0 -51 -36 -85.5t-89 -34.5t-89 34.5t-36 85.5z" />
<glyph unicode="&#xc5;" horiz-adv-x="1409" d="M-100 0l16 72l27 4q66 10 105.5 42t92.5 113l768 1217h62l159 -1219q10 -80 41 -110.5t97 -42.5l24 -4l-16 -72h-518l16 72l39 4q72 6 100.5 28.5t28.5 75.5q0 23 -2 35l-29 225h-510l-137 -223q-31 -51 -31 -82q0 -25 24 -39t75 -20l35 -4l-17 -72h-450zM461 535h438 l-76 589zM766 1708q0 84 62.5 144.5t150.5 60.5t150.5 -60.5t62.5 -144.5t-62.5 -144.5t-150.5 -60.5t-150.5 60.5t-62.5 144.5zM856 1708q0 -55 35 -90t88 -35t88 35t35 90t-35 90t-88 35t-88 -35t-35 -90z" />
<glyph unicode="&#xc6;" horiz-adv-x="1961" d="M-117 0l17 72l24 4q59 10 107.5 43t105.5 112l686 949q61 84 62 125q0 45 -80 53l-35 4l16 72h1221l-80 -342h-74q2 102 -16 153t-71.5 72.5t-159.5 21.5h-328l-129 -555h223q98 0 147.5 34t94.5 124h72l-99 -430h-67q-4 96 -37 137t-131 41h-224l-116 -500 q-4 -25 -4 -30q0 -39 28.5 -52.5t87.5 -13.5h189q133 0 207.5 23.5t130 87t123.5 198.5h79l-122 -403h-1129l16 72l39 4q63 6 103.5 31.5t54.5 82.5l57 250h-440l-160 -223q-37 -51 -36 -82q0 -25 22.5 -39t67.5 -20l32 -4l-16 -72h-459zM500 535h395l188 815z" />
<glyph unicode="&#xc7;" horiz-adv-x="1380" d="M150 610q0 217 103 415t286.5 318.5t410.5 120.5t473 -123l-82 -348h-73q0 190 -85 284.5t-241 94.5q-168 0 -298 -112.5t-199.5 -294t-69.5 -377.5q0 -143 48 -254t139 -173.5t214 -62.5q135 0 251 70t226 240l70 -43q-113 -207 -261.5 -301.5t-338.5 -94.5q-47 0 -90 6 l-55 -84q143 -68 143 -178q0 -76 -54.5 -125t-152.5 -49q-68 0 -118 23.5t-74 50.5l36 45q61 -45 140 -45q45 0 69.5 20.5t24.5 55.5q0 80 -150 118l119 185q-190 53 -300.5 222t-110.5 396z" />
<glyph unicode="&#xc8;" horiz-adv-x="1339" d="M-20 0l16 72l39 4q63 8 104 32.5t54 81.5l243 1053q4 25 4 33q0 70 -110 82l-35 4l16 72h1073l-79 -342h-74q2 102 -16.5 153t-70.5 72.5t-161 21.5h-328l-129 -555h224q100 0 148 34t93 124h72l-98 -430h-68q-4 96 -37 137t-131 41h-223l-117 -500q-4 -25 -4 -30 q0 -39 28.5 -52.5t88.5 -13.5h190q133 0 206 21.5t128 85t125 202.5h80l-123 -403h-1128zM700 1802l5 17h192l43 -271h-61z" />
<glyph unicode="&#xc9;" horiz-adv-x="1339" d="M-20 0l16 72l39 4q63 8 104 32.5t54 81.5l243 1053q4 25 4 33q0 70 -110 82l-35 4l16 72h1073l-79 -342h-74q2 102 -16.5 153t-70.5 72.5t-161 21.5h-328l-129 -555h224q100 0 148 34t93 124h72l-98 -430h-68q-4 96 -37 137t-131 41h-223l-117 -500q-4 -25 -4 -30 q0 -39 28.5 -52.5t88.5 -13.5h190q133 0 206 21.5t128 85t125 202.5h80l-123 -403h-1128zM864 1548l190 271h226l-5 -17l-342 -254h-69z" />
<glyph unicode="&#xca;" horiz-adv-x="1339" d="M-20 0l16 72l39 4q63 8 104 32.5t54 81.5l243 1053q4 25 4 33q0 70 -110 82l-35 4l16 72h1073l-79 -342h-74q2 102 -16.5 153t-70.5 72.5t-161 21.5h-328l-129 -555h224q100 0 148 34t93 124h72l-98 -430h-68q-4 96 -37 137t-131 41h-223l-117 -500q-4 -25 -4 -30 q0 -39 28.5 -52.5t88.5 -13.5h190q133 0 206 21.5t128 85t125 202.5h80l-123 -403h-1128zM617 1548l276 271h189l145 -271h-80l-174 162l-258 -162h-98z" />
<glyph unicode="&#xcb;" horiz-adv-x="1339" d="M-20 0l16 72l39 4q63 8 104 32.5t54 81.5l243 1053q4 25 4 33q0 70 -110 82l-35 4l16 72h1073l-79 -342h-74q2 102 -16.5 153t-70.5 72.5t-161 21.5h-328l-129 -555h224q100 0 148 34t93 124h72l-98 -430h-68q-4 96 -37 137t-131 41h-223l-117 -500q-4 -25 -4 -30 q0 -39 28.5 -52.5t88.5 -13.5h190q133 0 206 21.5t128 85t125 202.5h80l-123 -403h-1128zM605 1683q0 51 35.5 86t88.5 35t89 -34.5t36 -86.5q0 -51 -35.5 -85.5t-89.5 -34.5q-53 0 -88.5 34.5t-35.5 85.5zM1045 1683q0 51 36 86t89 35t89 -34.5t36 -86.5q0 -51 -36 -85.5 t-89 -34.5t-89 34.5t-36 85.5z" />
<glyph unicode="&#xcc;" horiz-adv-x="749" d="M-10 0l16 72l39 4q63 8 104 32.5t54 81.5l243 1053q4 25 5 33q0 70 -111 82l-35 4l17 72h536l-16 -72l-39 -4q-63 -6 -104.5 -32t-55.5 -83l-244 -1053q-4 -20 -4 -30q0 -41 30 -59.5t83 -24.5l35 -4l-17 -72h-536zM399 1802l5 17h192l43 -271h-61z" />
<glyph unicode="&#xcd;" horiz-adv-x="749" d="M-10 0l16 72l39 4q63 8 104 32.5t54 81.5l243 1053q4 25 5 33q0 70 -111 82l-35 4l17 72h536l-16 -72l-39 -4q-63 -6 -104.5 -32t-55.5 -83l-244 -1053q-4 -20 -4 -30q0 -41 30 -59.5t83 -24.5l35 -4l-17 -72h-536zM563 1548l190 271h226l-5 -17l-342 -254h-69z" />
<glyph unicode="&#xce;" horiz-adv-x="749" d="M-10 0l16 72l39 4q63 8 104 32.5t54 81.5l243 1053q4 25 5 33q0 70 -111 82l-35 4l17 72h536l-16 -72l-39 -4q-63 -6 -104.5 -32t-55.5 -83l-244 -1053q-4 -20 -4 -30q0 -41 30 -59.5t83 -24.5l35 -4l-17 -72h-536zM316 1548l276 271h189l145 -271h-80l-174 162 l-258 -162h-98z" />
<glyph unicode="&#xcf;" horiz-adv-x="749" d="M-10 0l16 72l39 4q63 8 104 32.5t54 81.5l243 1053q4 25 5 33q0 70 -111 82l-35 4l17 72h536l-16 -72l-39 -4q-63 -6 -104.5 -32t-55.5 -83l-244 -1053q-4 -20 -4 -30q0 -41 30 -59.5t83 -24.5l35 -4l-17 -72h-536zM304 1683q0 51 35.5 86t88.5 35t89 -34.5t36 -86.5 q0 -51 -35.5 -85.5t-89.5 -34.5q-53 0 -88.5 34.5t-35.5 85.5zM744 1683q0 51 36 86t89 35t89 -34.5t36 -86.5q0 -51 -36 -85.5t-89 -34.5t-89 34.5t-36 85.5z" />
<glyph unicode="&#xd0;" horiz-adv-x="1511" d="M-20 0l16 72l39 4q63 8 104 32.5t54 81.5l114 498h-155l20 92h158l106 463q4 20 4 31q0 41 -29.5 59.5t-80.5 24.5l-35 4l16 72h598q164 0 289 -72t195.5 -206t70.5 -318q0 -229 -110.5 -421t-299 -304.5t-411.5 -112.5h-663zM385 160q0 -39 28.5 -52.5t88.5 -13.5h94 q205 0 350.5 108.5t220 284t74.5 373.5q0 227 -91 353t-298 126h-197l-129 -559h396l-21 -92h-397l-115 -498q-4 -25 -4 -30z" />
<glyph unicode="&#xd1;" horiz-adv-x="1597" d="M-29 0l17 72l35 4q66 8 108.5 35.5t58.5 97.5l238 1034q4 25 4 33q0 70 -110 82l-35 4l16 72h328l563 -1069l197 845q6 29 6 50q0 51 -30 70.5t-83 27.5l-29 4l17 72h463l-17 -72l-35 -4q-68 -8 -110.5 -38t-61.5 -108l-280 -1222h-57l-635 1198l-226 -979q-6 -25 -6 -43 q0 -45 30 -63.5t83 -26.5l31 -4l-17 -72h-463zM713 1594q63 117 126.5 167t129.5 50q35 0 67.5 -13.5t79.5 -39.5q37 -23 64.5 -34.5t54.5 -11.5q76 0 135 101l64 -17q-63 -117 -126 -167t-128 -50q-35 0 -68 13.5t-80 40.5q-37 23 -64.5 34t-54.5 11q-78 0 -137 -101z" />
<glyph unicode="&#xd2;" horiz-adv-x="1542" d="M150 616q0 209 102 406t280.5 319.5t389.5 122.5q168 0 297 -84t200.5 -231.5t71.5 -329.5q0 -215 -102.5 -411.5t-279.5 -317.5t-388 -121q-168 0 -298 84t-201.5 231.5t-71.5 331.5zM375 582q0 -221 88 -371t256 -150q158 0 282.5 116t194.5 301.5t70 379.5 q0 219 -88 366.5t-256 147.5q-158 0 -283 -114.5t-194.5 -298t-69.5 -377.5zM735 1802l5 17h192l43 -271h-61z" />
<glyph unicode="&#xd3;" horiz-adv-x="1542" d="M150 616q0 209 102 406t280.5 319.5t389.5 122.5q168 0 297 -84t200.5 -231.5t71.5 -329.5q0 -215 -102.5 -411.5t-279.5 -317.5t-388 -121q-168 0 -298 84t-201.5 231.5t-71.5 331.5zM375 582q0 -221 88 -371t256 -150q158 0 282.5 116t194.5 301.5t70 379.5 q0 219 -88 366.5t-256 147.5q-158 0 -283 -114.5t-194.5 -298t-69.5 -377.5zM899 1548l190 271h226l-5 -17l-342 -254h-69z" />
<glyph unicode="&#xd4;" horiz-adv-x="1542" d="M150 616q0 209 102 406t280.5 319.5t389.5 122.5q168 0 297 -84t200.5 -231.5t71.5 -329.5q0 -215 -102.5 -411.5t-279.5 -317.5t-388 -121q-168 0 -298 84t-201.5 231.5t-71.5 331.5zM375 582q0 -221 88 -371t256 -150q158 0 282.5 116t194.5 301.5t70 379.5 q0 219 -88 366.5t-256 147.5q-158 0 -283 -114.5t-194.5 -298t-69.5 -377.5zM651 1548l276 271h189l145 -271h-80l-174 162l-258 -162h-98z" />
<glyph unicode="&#xd5;" horiz-adv-x="1542" d="M150 616q0 209 102 406t280.5 319.5t389.5 122.5q168 0 297 -84t200.5 -231.5t71.5 -329.5q0 -215 -102.5 -411.5t-279.5 -317.5t-388 -121q-168 0 -298 84t-201.5 231.5t-71.5 331.5zM375 582q0 -221 88 -371t256 -150q158 0 282.5 116t194.5 301.5t70 379.5 q0 219 -88 366.5t-256 147.5q-158 0 -283 -114.5t-194.5 -298t-69.5 -377.5zM629 1594q63 117 126.5 167t129.5 50q35 0 67.5 -13.5t79.5 -39.5q37 -23 64.5 -34.5t54.5 -11.5q76 0 135 101l64 -17q-63 -117 -126 -167t-128 -50q-35 0 -68 13.5t-80 40.5q-37 23 -64.5 34 t-54.5 11q-78 0 -137 -101z" />
<glyph unicode="&#xd6;" horiz-adv-x="1542" d="M150 616q0 209 102 406t280.5 319.5t389.5 122.5q168 0 297 -84t200.5 -231.5t71.5 -329.5q0 -215 -102.5 -411.5t-279.5 -317.5t-388 -121q-168 0 -298 84t-201.5 231.5t-71.5 331.5zM375 582q0 -221 88 -371t256 -150q158 0 282.5 116t194.5 301.5t70 379.5 q0 219 -88 366.5t-256 147.5q-158 0 -283 -114.5t-194.5 -298t-69.5 -377.5zM639 1683q0 51 35.5 86t88.5 35t89 -34.5t36 -86.5q0 -51 -35.5 -85.5t-89.5 -34.5q-53 0 -88.5 34.5t-35.5 85.5zM1079 1683q0 51 36 86t89 35t89 -34.5t36 -86.5q0 -51 -36 -85.5t-89 -34.5 t-89 34.5t-36 85.5z" />
<glyph unicode="&#xd7;" d="M201 315l346 347l-344 342l88 88l344 -342l344 344l90 -90l-344 -345l342 -344l-88 -88l-342 344l-346 -346z" />
<glyph unicode="&#xd8;" horiz-adv-x="1542" d="M102 -2l177 190q-61 86 -95 195t-34 233q0 209 102 406t280.5 319.5t389.5 122.5q117 0 216 -42t175 -119l166 180l59 -51l-174 -189q127 -178 127 -424q0 -215 -102.5 -411.5t-279.5 -317.5t-388 -121q-117 0 -215 42t-174 118l-170 -184zM375 582q0 -135 35 -252 l790 854q-43 88 -113.5 138t-164.5 50q-158 0 -283 -114.5t-194.5 -298t-69.5 -377.5zM442 248q43 -88 113 -137.5t164 -49.5q158 0 282.5 116t194.5 301.5t70 379.5q0 138 -33 244z" />
<glyph unicode="&#xd9;" horiz-adv-x="1529" d="M233 381q0 80 21 164l162 698q4 25 4 33q0 70 -111 82l-35 4l17 72h551l-17 -72l-43 -6q-76 -10 -116.5 -36t-57.5 -93l-162 -705q-16 -76 -16 -127q0 -145 89 -221t241 -76q160 0 257 93.5t142 289.5l172 736q6 29 6 47q0 45 -27.5 65.5t-86.5 28.5l-29 4l16 72h459 l-16 -72l-35 -4q-72 -8 -112 -39t-56 -102l-178 -758q-53 -227 -190.5 -358.5t-360.5 -131.5q-236 0 -362 108.5t-126 303.5zM802 1802l5 17h192l43 -271h-61z" />
<glyph unicode="&#xda;" horiz-adv-x="1529" d="M233 381q0 80 21 164l162 698q4 25 4 33q0 70 -111 82l-35 4l17 72h551l-17 -72l-43 -6q-76 -10 -116.5 -36t-57.5 -93l-162 -705q-16 -76 -16 -127q0 -145 89 -221t241 -76q160 0 257 93.5t142 289.5l172 736q6 29 6 47q0 45 -27.5 65.5t-86.5 28.5l-29 4l16 72h459 l-16 -72l-35 -4q-72 -8 -112 -39t-56 -102l-178 -758q-53 -227 -190.5 -358.5t-360.5 -131.5q-236 0 -362 108.5t-126 303.5zM967 1548l190 271h226l-5 -17l-342 -254h-69z" />
<glyph unicode="&#xdb;" horiz-adv-x="1529" d="M233 381q0 80 21 164l162 698q4 25 4 33q0 70 -111 82l-35 4l17 72h551l-17 -72l-43 -6q-76 -10 -116.5 -36t-57.5 -93l-162 -705q-16 -76 -16 -127q0 -145 89 -221t241 -76q160 0 257 93.5t142 289.5l172 736q6 29 6 47q0 45 -27.5 65.5t-86.5 28.5l-29 4l16 72h459 l-16 -72l-35 -4q-72 -8 -112 -39t-56 -102l-178 -758q-53 -227 -190.5 -358.5t-360.5 -131.5q-236 0 -362 108.5t-126 303.5zM719 1548l276 271h189l145 -271h-80l-174 162l-258 -162h-98z" />
<glyph unicode="&#xdc;" horiz-adv-x="1529" d="M233 381q0 80 21 164l162 698q4 25 4 33q0 70 -111 82l-35 4l17 72h551l-17 -72l-43 -6q-76 -10 -116.5 -36t-57.5 -93l-162 -705q-16 -76 -16 -127q0 -145 89 -221t241 -76q160 0 257 93.5t142 289.5l172 736q6 29 6 47q0 45 -27.5 65.5t-86.5 28.5l-29 4l16 72h459 l-16 -72l-35 -4q-72 -8 -112 -39t-56 -102l-178 -758q-53 -227 -190.5 -358.5t-360.5 -131.5q-236 0 -362 108.5t-126 303.5zM707 1683q0 51 35.5 86t88.5 35t89 -34.5t36 -86.5q0 -51 -35.5 -85.5t-89.5 -34.5q-53 0 -88.5 34.5t-35.5 85.5zM1147 1683q0 51 36 86t89 35 t89 -34.5t36 -86.5q0 -51 -36 -85.5t-89 -34.5t-89 34.5t-36 85.5z" />
<glyph unicode="&#xdd;" horiz-adv-x="1284" d="M215 1362l16 72h510l-16 -72l-43 -4q-70 -6 -104.5 -27.5t-34.5 -62.5q0 -16 10 -51l164 -494l387 491q41 53 41 82q0 27 -27.5 41.5t-81.5 20.5l-35 4l17 72h465l-17 -72l-24 -4q-63 -10 -116.5 -51t-121.5 -125l-440 -545l-105 -447q-4 -25 -4 -30q0 -41 30 -59.5 t83 -24.5l35 -4l-17 -72h-536l16 72l39 4q63 6 103.5 31.5t54.5 82.5l100 426l-201 586q-27 82 -52 114t-74 42zM826 1548l190 271h226l-5 -17l-342 -254h-69z" />
<glyph unicode="&#xde;" horiz-adv-x="1249" d="M-20 0l16 72l39 4q63 8 104 32.5t54 81.5l243 1053q4 25 4 33q0 70 -110 82l-35 4l16 72h537l-17 -72l-38 -4q-63 -6 -104.5 -32t-55.5 -83l-25 -108h185q194 0 319 -93.5t125 -257.5q0 -131 -73.5 -231t-205 -155.5t-299.5 -55.5h-235l-35 -152q-4 -20 -4 -30 q0 -41 29.5 -59.5t83.5 -24.5l34 -4l-16 -72h-536zM446 436h172q207 0 309.5 95.5t102.5 261.5q0 127 -79 187t-212 60h-153z" />
<glyph unicode="&#xdf;" horiz-adv-x="1189" d="M-362 -328q41 76 110 76q31 0 51.5 -14.5t40.5 -44.5q23 -33 41.5 -48.5t42.5 -15.5q59 0 103.5 92.5t93.5 335.5l172 852h-166l14 64l172 47l19 88q29 139 103.5 233.5t170.5 139.5t193 45q82 0 156.5 -35t120.5 -97.5t46 -142.5t-48 -139t-134 -121q-82 -55 -125 -98 t-43 -74q0 -29 19.5 -59.5t93.5 -112.5l37 -41q94 -104 136 -170.5t42 -142.5q0 -72 -42 -144.5t-118 -121t-172 -48.5q-102 0 -192.5 45.5t-122.5 137.5q39 70 106 69q31 0 51.5 -15t42.5 -50q39 -57 72 -84t88 -27q59 0 101 47t42 115q0 57 -34.5 109.5t-124.5 152.5 l-39 43q-74 82 -97.5 124t-23.5 79q0 51 35 100t106 123q86 90 131 157.5t45 147.5q0 96 -49 148.5t-121 52.5q-96 0 -165.5 -85t-106.5 -255l-227 -1090q-49 -236 -154.5 -349t-249.5 -113q-94 0 -160.5 34.5t-82.5 79.5z" />
<glyph unicode="&#xe0;" horiz-adv-x="1132" d="M59 297q0 166 89.5 338t228.5 284.5t278 112.5q55 0 113.5 -17.5t97.5 -49.5l146 65h18l-188 -801q-16 -61 -17 -94q0 -43 35 -43q59 0 170 144l41 -33q-90 -133 -156.5 -178t-140.5 -45q-127 0 -127 143q0 39 15 106l38 170h-10q-94 -197 -189 -310.5t-216 -113.5 q-102 0 -164 82t-62 240zM252 299q0 -195 102 -195q76 0 167 115t167 282t109 306l12 49q-20 45 -60 72.5t-96 27.5q-100 0 -193 -96t-150.5 -249.5t-57.5 -311.5zM508 1479l4 16h189l57 -344h-57z" />
<glyph unicode="&#xe1;" horiz-adv-x="1132" d="M59 297q0 166 89.5 338t228.5 284.5t278 112.5q55 0 113.5 -17.5t97.5 -49.5l146 65h18l-188 -801q-16 -61 -17 -94q0 -43 35 -43q59 0 170 144l41 -33q-90 -133 -156.5 -178t-140.5 -45q-127 0 -127 143q0 39 15 106l38 170h-10q-94 -197 -189 -310.5t-216 -113.5 q-102 0 -164 82t-62 240zM252 299q0 -195 102 -195q76 0 167 115t167 282t109 306l12 49q-20 45 -60 72.5t-96 27.5q-100 0 -193 -96t-150.5 -249.5t-57.5 -311.5zM623 1151l211 344h209l-4 -16l-351 -328h-65z" />
<glyph unicode="&#xe2;" horiz-adv-x="1132" d="M59 297q0 166 89.5 338t228.5 284.5t278 112.5q55 0 113.5 -17.5t97.5 -49.5l146 65h18l-188 -801q-16 -61 -17 -94q0 -43 35 -43q59 0 170 144l41 -33q-90 -133 -156.5 -178t-140.5 -45q-127 0 -127 143q0 39 15 106l38 170h-10q-94 -197 -189 -310.5t-216 -113.5 q-102 0 -164 82t-62 240zM252 299q0 -195 102 -195q76 0 167 115t167 282t109 306l12 49q-20 45 -60 72.5t-96 27.5q-100 0 -193 -96t-150.5 -249.5t-57.5 -311.5zM398 1151l295 344h192l123 -344h-80l-156 227l-276 -227h-98z" />
<glyph unicode="&#xe3;" horiz-adv-x="1132" d="M59 297q0 166 89.5 338t228.5 284.5t278 112.5q55 0 113.5 -17.5t97.5 -49.5l146 65h18l-188 -801q-16 -61 -17 -94q0 -43 35 -43q59 0 170 144l41 -33q-90 -133 -156.5 -178t-140.5 -45q-127 0 -127 143q0 39 15 106l38 170h-10q-94 -197 -189 -310.5t-216 -113.5 q-102 0 -164 82t-62 240zM252 299q0 -195 102 -195q76 0 167 115t167 282t109 306l12 49q-20 45 -60 72.5t-96 27.5q-100 0 -193 -96t-150.5 -249.5t-57.5 -311.5zM383 1266q63 117 126.5 167t129.5 50q35 0 67.5 -13.5t79.5 -39.5q37 -23 64.5 -34.5t54.5 -11.5 q76 0 135 101l64 -17q-63 -117 -126 -167t-128 -50q-35 0 -68 13.5t-80 40.5q-37 23 -64.5 34t-54.5 11q-78 0 -137 -101z" />
<glyph unicode="&#xe4;" horiz-adv-x="1132" d="M59 297q0 166 89.5 338t228.5 284.5t278 112.5q55 0 113.5 -17.5t97.5 -49.5l146 65h18l-188 -801q-16 -61 -17 -94q0 -43 35 -43q59 0 170 144l41 -33q-90 -133 -156.5 -178t-140.5 -45q-127 0 -127 143q0 39 15 106l38 170h-10q-94 -197 -189 -310.5t-216 -113.5 q-102 0 -164 82t-62 240zM252 299q0 -195 102 -195q76 0 167 115t167 282t109 306l12 49q-20 45 -60 72.5t-96 27.5q-100 0 -193 -96t-150.5 -249.5t-57.5 -311.5zM440 1341q0 49 37 84t86 35t86 -34.5t37 -84.5q0 -49 -37 -83.5t-86 -34.5t-86 34.5t-37 83.5zM811 1341 q0 49 37 84t86 35t86 -34.5t37 -84.5q0 -49 -37 -83.5t-86 -34.5t-86 34.5t-37 83.5z" />
<glyph unicode="&#xe5;" horiz-adv-x="1132" d="M59 297q0 166 89.5 338t228.5 284.5t278 112.5q55 0 113.5 -17.5t97.5 -49.5l146 65h18l-188 -801q-16 -61 -17 -94q0 -43 35 -43q59 0 170 144l41 -33q-90 -133 -156.5 -178t-140.5 -45q-127 0 -127 143q0 39 15 106l38 170h-10q-94 -197 -189 -310.5t-216 -113.5 q-102 0 -164 82t-62 240zM252 299q0 -195 102 -195q76 0 167 115t167 282t109 306l12 49q-20 45 -60 72.5t-96 27.5q-100 0 -193 -96t-150.5 -249.5t-57.5 -311.5zM553 1366q0 84 62.5 144.5t150.5 60.5t150.5 -60.5t62.5 -144.5t-62.5 -144.5t-150.5 -60.5t-150.5 60.5 t-62.5 144.5zM643 1366q0 -55 35 -90t88 -35t88 35t35 90t-35 90t-88 35t-88 -35t-35 -90z" />
<glyph unicode="&#xe6;" horiz-adv-x="1427" d="M41 209q0 131 81 197.5t243 111.5l284 80l27 117q8 35 8 76q0 78 -40 121.5t-112 43.5q-66 0 -102.5 -32.5t-81.5 -120.5q-23 -41 -45 -55.5t-57 -14.5q-39 0 -70 23.5t-43 54.5q16 45 73.5 97.5t143.5 88t185 35.5q117 0 191.5 -39t107.5 -106q150 145 315 145 q102 0 174 -57t72 -144q0 -166 -184.5 -248.5t-413.5 -99.5q-4 -49 -4 -71q0 -150 59 -222.5t158 -72.5q145 0 288 188l48 -31q-164 -297 -408 -297q-102 0 -177 52.5t-112 146.5q-162 -199 -350 -199q-74 0 -133.5 33t-92 87.5t-32.5 111.5zM217 252q0 -68 39 -112t109 -44 q77 0 138.5 37t125.5 105q-16 70 -17 137q0 68 17 145l-217 -69q-96 -31 -145.5 -76t-49.5 -123zM807 549q178 18 300 89t122 198q0 55 -26.5 84.5t-76.5 29.5q-108 0 -197 -119.5t-122 -281.5z" />
<glyph unicode="&#xe7;" horiz-adv-x="890" d="M41 -387l37 45q61 -45 139 -45q45 0 69.5 20.5t24.5 55.5q0 80 -149 118l121 189q-98 37 -153.5 137t-55.5 242q0 152 73.5 306.5t199.5 253.5t269 99q98 0 173 -38t106 -105q-18 -41 -49 -65.5t-70 -24.5q-33 0 -52 16.5t-42 54.5q-25 43 -47.5 63.5t-67.5 20.5 q-78 0 -150.5 -85t-117.5 -216t-45 -260q0 -135 57.5 -207.5t155.5 -72.5q78 0 148.5 49t146.5 153l49 -30q-170 -309 -416 -310q-27 0 -41 3l-57 -89q143 -68 143 -178q0 -76 -54 -125t-153 -49q-68 0 -117.5 23.5t-74.5 50.5z" />
<glyph unicode="&#xe8;" horiz-adv-x="888" d="M74 375q0 152 74.5 305.5t198.5 252.5t263 99q102 0 173 -56t71 -142q0 -166 -182.5 -250t-413.5 -103q-4 -45 -4 -69q0 -150 59.5 -222.5t157.5 -72.5q146 0 289 188l47 -31q-164 -297 -408 -297q-150 0 -237.5 110t-87.5 288zM268 545q176 16 299 90t123 201 q0 55 -25.5 84.5t-74.5 29.5q-109 0 -199 -120.5t-123 -284.5zM432 1479l4 16h189l57 -344h-57z" />
<glyph unicode="&#xe9;" horiz-adv-x="888" d="M74 375q0 152 74.5 305.5t198.5 252.5t263 99q102 0 173 -56t71 -142q0 -166 -182.5 -250t-413.5 -103q-4 -45 -4 -69q0 -150 59.5 -222.5t157.5 -72.5q146 0 289 188l47 -31q-164 -297 -408 -297q-150 0 -237.5 110t-87.5 288zM268 545q176 16 299 90t123 201 q0 55 -25.5 84.5t-74.5 29.5q-109 0 -199 -120.5t-123 -284.5zM547 1151l211 344h209l-4 -16l-351 -328h-65z" />
<glyph unicode="&#xea;" horiz-adv-x="888" d="M74 375q0 152 74.5 305.5t198.5 252.5t263 99q102 0 173 -56t71 -142q0 -166 -182.5 -250t-413.5 -103q-4 -45 -4 -69q0 -150 59.5 -222.5t157.5 -72.5q146 0 289 188l47 -31q-164 -297 -408 -297q-150 0 -237.5 110t-87.5 288zM268 545q176 16 299 90t123 201 q0 55 -25.5 84.5t-74.5 29.5q-109 0 -199 -120.5t-123 -284.5zM322 1151l295 344h192l123 -344h-80l-156 227l-276 -227h-98z" />
<glyph unicode="&#xeb;" horiz-adv-x="888" d="M74 375q0 152 74.5 305.5t198.5 252.5t263 99q102 0 173 -56t71 -142q0 -166 -182.5 -250t-413.5 -103q-4 -45 -4 -69q0 -150 59.5 -222.5t157.5 -72.5q146 0 289 188l47 -31q-164 -297 -408 -297q-150 0 -237.5 110t-87.5 288zM268 545q176 16 299 90t123 201 q0 55 -25.5 84.5t-74.5 29.5q-109 0 -199 -120.5t-123 -284.5zM364 1341q0 49 37 84t86 35t86 -34.5t37 -84.5q0 -49 -37 -83.5t-86 -34.5t-86 34.5t-37 83.5zM735 1341q0 49 37 84t86 35t86 -34.5t37 -84.5q0 -49 -37 -83.5t-86 -34.5t-86 34.5t-37 83.5z" />
<glyph unicode="&#xec;" horiz-adv-x="600" d="M115 123q0 39 14 106l119 514q8 41 8 54q0 39 -24.5 57t-86.5 33l13 51l317 92h19l-185 -801q-16 -61 -16 -94q0 -43 35 -43q59 0 170 144l41 -33q-90 -133 -157 -178t-140 -45q-127 0 -127 143zM182 1479l4 16h189l57 -344h-57z" />
<glyph unicode="&#xed;" horiz-adv-x="600" d="M115 123q0 39 14 106l119 514q8 41 8 54q0 39 -24.5 57t-86.5 33l13 51l317 92h19l-185 -801q-16 -61 -16 -94q0 -43 35 -43q59 0 170 144l41 -33q-90 -133 -157 -178t-140 -45q-127 0 -127 143zM297 1151l211 344h209l-4 -16l-351 -328h-65z" />
<glyph unicode="&#xee;" horiz-adv-x="600" d="M72 1151l295 344h192l123 -344h-80l-156 227l-276 -227h-98zM115 123q0 39 14 106l119 514q8 41 8 54q0 39 -24.5 57t-86.5 33l13 51l317 92h19l-185 -801q-16 -61 -16 -94q0 -43 35 -43q59 0 170 144l41 -33q-90 -133 -157 -178t-140 -45q-127 0 -127 143z" />
<glyph unicode="&#xef;" horiz-adv-x="600" d="M114 1341q0 49 37 84t86 35t86 -34.5t37 -84.5q0 -49 -37 -83.5t-86 -34.5t-86 34.5t-37 83.5zM115 123q0 39 14 106l119 514q8 41 8 54q0 39 -24.5 57t-86.5 33l13 51l317 92h19l-185 -801q-16 -61 -16 -94q0 -43 35 -43q59 0 170 144l41 -33q-90 -133 -157 -178 t-140 -45q-127 0 -127 143zM485 1341q0 49 37 84t86 35t86 -34.5t37 -84.5q0 -49 -37 -83.5t-86 -34.5t-86 34.5t-37 83.5z" />
<glyph unicode="&#xf0;" horiz-adv-x="1079" d="M76 418q0 145 76.5 278t201.5 214t258 81q66 0 122.5 -24.5t86.5 -71.5q-4 166 -73 307l-291 -98l-11 78l261 88q-80 121 -215 205l51 51q166 -74 282 -217l254 86l11 -78l-218 -74q141 -215 142 -516q0 -201 -73 -373t-205 -275.5t-302 -103.5q-94 0 -177 55.5t-132 156 t-49 231.5zM274 358q0 -133 44 -215t131 -82q104 0 183 82t122 210t43 261t-52.5 212t-146.5 79q-98 0 -172 -80t-113 -205.5t-39 -261.5z" />
<glyph unicode="&#xf1;" horiz-adv-x="1161" d="M76 0l172 741q8 41 8 56q0 39 -24.5 57t-86.5 33l13 51l317 92h19l-101 -434h10q104 219 236.5 329.5t247.5 110.5q82 0 117.5 -40t35.5 -115q0 -76 -28 -181l-123 -471q-16 -61 -17 -94q0 -23 7.5 -33t25.5 -10q59 0 170 144l41 -33q-90 -133 -156.5 -178t-140.5 -45 q-63 0 -95 36.5t-32 102.5q0 45 17 110l125 478q25 92 24 135q0 33 -16.5 47t-50.5 14q-66 0 -162.5 -84t-189.5 -255t-150 -419l-33 -145h-180zM402 1266q63 117 126.5 167t129.5 50q35 0 67.5 -13.5t79.5 -39.5q37 -23 64.5 -34.5t54.5 -11.5q76 0 135 101l64 -17 q-63 -117 -126 -167t-128 -50q-35 0 -68 13.5t-80 40.5q-37 23 -64.5 34t-54.5 11q-78 0 -137 -101z" />
<glyph unicode="&#xf2;" horiz-adv-x="1056" d="M78 422q0 160 80 300t205.5 225t254.5 85q94 0 177.5 -55t133.5 -156.5t50 -232.5q0 -160 -80 -301.5t-207 -226.5t-256 -85q-94 0 -176 56.5t-132 158t-50 232.5zM276 348q0 -133 42 -212t131 -79q96 0 171.5 90.5t117.5 231.5t42 287q0 135 -42 209.5t-130 74.5 q-96 0 -172 -89t-118 -229t-42 -284zM465 1479l4 16h189l57 -344h-57z" />
<glyph unicode="&#xf3;" horiz-adv-x="1056" d="M78 422q0 160 80 300t205.5 225t254.5 85q94 0 177.5 -55t133.5 -156.5t50 -232.5q0 -160 -80 -301.5t-207 -226.5t-256 -85q-94 0 -176 56.5t-132 158t-50 232.5zM276 348q0 -133 42 -212t131 -79q96 0 171.5 90.5t117.5 231.5t42 287q0 135 -42 209.5t-130 74.5 q-96 0 -172 -89t-118 -229t-42 -284zM580 1151l211 344h209l-4 -16l-351 -328h-65z" />
<glyph unicode="&#xf4;" horiz-adv-x="1056" d="M78 422q0 160 80 300t205.5 225t254.5 85q94 0 177.5 -55t133.5 -156.5t50 -232.5q0 -160 -80 -301.5t-207 -226.5t-256 -85q-94 0 -176 56.5t-132 158t-50 232.5zM276 348q0 -133 42 -212t131 -79q96 0 171.5 90.5t117.5 231.5t42 287q0 135 -42 209.5t-130 74.5 q-96 0 -172 -89t-118 -229t-42 -284zM355 1151l295 344h192l123 -344h-80l-156 227l-276 -227h-98z" />
<glyph unicode="&#xf5;" horiz-adv-x="1056" d="M78 422q0 160 80 300t205.5 225t254.5 85q94 0 177.5 -55t133.5 -156.5t50 -232.5q0 -160 -80 -301.5t-207 -226.5t-256 -85q-94 0 -176 56.5t-132 158t-50 232.5zM276 348q0 -133 42 -212t131 -79q96 0 171.5 90.5t117.5 231.5t42 287q0 135 -42 209.5t-130 74.5 q-96 0 -172 -89t-118 -229t-42 -284zM340 1266q63 117 126.5 167t129.5 50q35 0 67.5 -13.5t79.5 -39.5q37 -23 64.5 -34.5t54.5 -11.5q76 0 135 101l64 -17q-63 -117 -126 -167t-128 -50q-35 0 -68 13.5t-80 40.5q-37 23 -64.5 34t-54.5 11q-78 0 -137 -101z" />
<glyph unicode="&#xf6;" horiz-adv-x="1056" d="M78 422q0 160 80 300t205.5 225t254.5 85q94 0 177.5 -55t133.5 -156.5t50 -232.5q0 -160 -80 -301.5t-207 -226.5t-256 -85q-94 0 -176 56.5t-132 158t-50 232.5zM276 348q0 -133 42 -212t131 -79q96 0 171.5 90.5t117.5 231.5t42 287q0 135 -42 209.5t-130 74.5 q-96 0 -172 -89t-118 -229t-42 -284zM397 1341q0 49 37 84t86 35t86 -34.5t37 -84.5q0 -49 -37 -83.5t-86 -34.5t-86 34.5t-37 83.5zM768 1341q0 49 37 84t86 35t86 -34.5t37 -84.5q0 -49 -37 -83.5t-86 -34.5t-86 34.5t-37 83.5z" />
<glyph unicode="&#xf7;" d="M164 621v118h942v-118h-942zM506 352q0 51 38 88t91 37t91 -37t38 -88q0 -49 -40 -87t-89 -38q-53 0 -91 37t-38 88zM506 1008q0 51 38 88t91 37t91 -37t38 -88q0 -49 -40 -87t-89 -38q-53 0 -91 36.5t-38 88.5z" />
<glyph unicode="&#xf8;" horiz-adv-x="1056" d="M2 -2l145 154q-70 117 -69 270q0 160 80 300t205.5 225t254.5 85q70 0 136.5 -31.5t117.5 -91.5l134 140l47 -43l-144 -150q70 -117 70 -268q0 -160 -80 -301.5t-207 -226.5t-256 -85q-70 0 -135 32t-115 91l-137 -143zM276 348q1 -41 3 -59l489 510q-35 152 -160 151 q-96 0 -172 -89t-118 -229t-42 -284zM291 209q18 -72 57 -112t101 -40q96 0 171.5 90.5t117.5 231.5t42 287q0 37 -2 53z" />
<glyph unicode="&#xf9;" horiz-adv-x="1206" d="M80 805q90 135 157.5 179t141.5 44q61 0 93 -36t32 -103q0 -47 -17 -113l-125 -471q-25 -92 -24 -135q0 -33 13.5 -46t43.5 -13q66 0 159 91t179 248.5t133 348.5l49 209h181l-181 -779q-16 -61 -16 -94q0 -43 35 -43q59 0 170 144l41 -33q-90 -133 -156.5 -178 t-140.5 -45q-127 0 -127 143q0 39 14 106l45 191h-10q-117 -225 -232.5 -335t-224.5 -110q-158 0 -157 160q0 74 28 176l125 473q12 49 13 80q0 49 -35 49q-33 0 -72 -34.5t-94 -106.5zM506 1479l4 16h189l57 -344h-57z" />
<glyph unicode="&#xfa;" horiz-adv-x="1206" d="M80 805q90 135 157.5 179t141.5 44q61 0 93 -36t32 -103q0 -47 -17 -113l-125 -471q-25 -92 -24 -135q0 -33 13.5 -46t43.5 -13q66 0 159 91t179 248.5t133 348.5l49 209h181l-181 -779q-16 -61 -16 -94q0 -43 35 -43q59 0 170 144l41 -33q-90 -133 -156.5 -178 t-140.5 -45q-127 0 -127 143q0 39 14 106l45 191h-10q-117 -225 -232.5 -335t-224.5 -110q-158 0 -157 160q0 74 28 176l125 473q12 49 13 80q0 49 -35 49q-33 0 -72 -34.5t-94 -106.5zM621 1151l211 344h209l-4 -16l-351 -328h-65z" />
<glyph unicode="&#xfb;" horiz-adv-x="1206" d="M80 805q90 135 157.5 179t141.5 44q61 0 93 -36t32 -103q0 -47 -17 -113l-125 -471q-25 -92 -24 -135q0 -33 13.5 -46t43.5 -13q66 0 159 91t179 248.5t133 348.5l49 209h181l-181 -779q-16 -61 -16 -94q0 -43 35 -43q59 0 170 144l41 -33q-90 -133 -156.5 -178 t-140.5 -45q-127 0 -127 143q0 39 14 106l45 191h-10q-117 -225 -232.5 -335t-224.5 -110q-158 0 -157 160q0 74 28 176l125 473q12 49 13 80q0 49 -35 49q-33 0 -72 -34.5t-94 -106.5zM396 1151l295 344h192l123 -344h-80l-156 227l-276 -227h-98z" />
<glyph unicode="&#xfc;" horiz-adv-x="1206" d="M80 805q90 135 157.5 179t141.5 44q61 0 93 -36t32 -103q0 -47 -17 -113l-125 -471q-25 -92 -24 -135q0 -33 13.5 -46t43.5 -13q66 0 159 91t179 248.5t133 348.5l49 209h181l-181 -779q-16 -61 -16 -94q0 -43 35 -43q59 0 170 144l41 -33q-90 -133 -156.5 -178 t-140.5 -45q-127 0 -127 143q0 39 14 106l45 191h-10q-117 -225 -232.5 -335t-224.5 -110q-158 0 -157 160q0 74 28 176l125 473q12 49 13 80q0 49 -35 49q-33 0 -72 -34.5t-94 -106.5zM438 1341q0 49 37 84t86 35t86 -34.5t37 -84.5q0 -49 -37 -83.5t-86 -34.5t-86 34.5 t-37 83.5zM809 1341q0 49 37 84t86 35t86 -34.5t37 -84.5q0 -49 -37 -83.5t-86 -34.5t-86 34.5t-37 83.5z" />
<glyph unicode="&#xfd;" horiz-adv-x="942" d="M-248 -369q27 55 62.5 86t87.5 31q27 0 48 -6t27 -8q49 -16 84 -17q51 0 99.5 34t128.5 112q25 23 73 76l-176 753q-18 80 -34.5 118t-45 55.5t-81.5 21.5l12 51l237 94h19l205 -921q111 154 182.5 309t71.5 266q0 55 -16.5 91t-45.5 71q-20 27 -29.5 43t-9.5 39 q0 37 39 67.5t101 38.5q53 -24 80.5 -80.5t27.5 -124.5q0 -117 -82 -309t-215 -392t-274 -337q-123 -121 -214 -174t-190 -53q-57 0 -103 20.5t-69 44.5zM432 1151l211 344h209l-4 -16l-351 -328h-65z" />
<glyph unicode="&#xfe;" horiz-adv-x="1089" d="M-186 -430l16 68l39 4q55 6 83 29.5t42 84.5l338 1471q8 41 8 55q0 39 -24.5 57.5t-86.5 32.5l13 51l317 93h19l-209 -908h10q94 195 194.5 309.5t221.5 114.5q108 0 172.5 -81t64.5 -240q0 -166 -90 -339t-232.5 -285t-283.5 -112q-115 0 -195 45l-59 -264 q-6 -29 -6 -49q0 -33 17.5 -47t60.5 -18l35 -4l-17 -68h-448zM262 158q23 -51 67 -79t99 -28q104 0 199.5 97.5t154 250t58.5 312.5q0 193 -111 192q-80 0 -174 -115.5t-173 -282.5t-110 -304z" />
<glyph unicode="&#xff;" horiz-adv-x="942" d="M-248 -369q27 55 62.5 86t87.5 31q27 0 48 -6t27 -8q49 -16 84 -17q51 0 99.5 34t128.5 112q25 23 73 76l-176 753q-18 80 -34.5 118t-45 55.5t-81.5 21.5l12 51l237 94h19l205 -921q111 154 182.5 309t71.5 266q0 55 -16.5 91t-45.5 71q-20 27 -29.5 43t-9.5 39 q0 37 39 67.5t101 38.5q53 -24 80.5 -80.5t27.5 -124.5q0 -117 -82 -309t-215 -392t-274 -337q-123 -121 -214 -174t-190 -53q-57 0 -103 20.5t-69 44.5zM249 1341q0 49 37 84t86 35t86 -34.5t37 -84.5q0 -49 -37 -83.5t-86 -34.5t-86 34.5t-37 83.5zM620 1341q0 49 37 84 t86 35t86 -34.5t37 -84.5q0 -49 -37 -83.5t-86 -34.5t-86 34.5t-37 83.5z" />
<glyph unicode="&#x152;" horiz-adv-x="2097" d="M150 616q0 209 101 403.5t281.5 316.5t399.5 122q109 0 207 -24h1003l-80 -342h-73q2 102 -16.5 153t-71 72.5t-160.5 21.5h-328l-129 -555h223q100 0 148.5 34t93.5 124h72l-99 -430h-67q-4 96 -37 137t-131 41h-223l-117 -500q-4 -25 -4 -30q0 -39 28.5 -52.5 t88.5 -13.5h190q133 0 206 21.5t128 85t125 202.5h80l-123 -403h-955q-94 -18 -194 -18q-168 0 -297 81.5t-199.5 226t-70.5 326.5zM375 575q0 -213 90 -357t264 -144q113 0 203 39l268 1155q-102 98 -268 98q-164 0 -291 -114.5t-196.5 -298t-69.5 -378.5z" />
<glyph unicode="&#x153;" horiz-adv-x="1595" d="M78 422q0 160 80 300t205.5 225t254.5 85q96 0 180.5 -60.5t129.5 -168.5q78 104 179 166.5t210 62.5q102 0 174 -57t72 -144q0 -166 -184.5 -248.5t-413.5 -99.5q-4 -49 -4 -71q0 -150 59 -222.5t158 -72.5q145 0 288 188l47 -31q-164 -297 -407 -297q-102 0 -177 53.5 t-114 147.5q-78 -94 -178 -148.5t-201 -54.5q-94 0 -176 56.5t-132 158t-50 232.5zM276 348q0 -133 42 -212t131 -79q96 0 171.5 90.5t117.5 231.5t42 287q0 135 -42 209.5t-130 74.5q-96 0 -172 -89t-118 -229t-42 -284zM975 549q178 18 300 89t122 198q0 55 -27 84.5 t-76 29.5q-108 0 -197 -119.5t-122 -281.5z" />
<glyph unicode="&#x178;" horiz-adv-x="1284" d="M215 1362l16 72h510l-16 -72l-43 -4q-70 -6 -104.5 -27.5t-34.5 -62.5q0 -16 10 -51l164 -494l387 491q41 53 41 82q0 27 -27.5 41.5t-81.5 20.5l-35 4l17 72h465l-17 -72l-24 -4q-63 -10 -116.5 -51t-121.5 -125l-440 -545l-105 -447q-4 -25 -4 -30q0 -41 30 -59.5 t83 -24.5l35 -4l-17 -72h-536l16 72l39 4q63 6 103.5 31.5t54.5 82.5l100 426l-201 586q-27 82 -52 114t-74 42zM566 1683q0 51 35.5 86t88.5 35t89 -34.5t36 -86.5q0 -51 -35.5 -85.5t-89.5 -34.5q-53 0 -88.5 34.5t-35.5 85.5zM1006 1683q0 51 36 86t89 35t89 -34.5 t36 -86.5q0 -51 -36 -85.5t-89 -34.5t-89 34.5t-36 85.5z" />
<glyph unicode="&#x2c6;" horiz-adv-x="1228" d="M453 1151l295 344h192l123 -344h-80l-156 227l-276 -227h-98z" />
<glyph unicode="&#x2dc;" horiz-adv-x="1228" d="M439 1266q63 117 126.5 167t129.5 50q35 0 67.5 -13.5t79.5 -39.5q37 -23 64.5 -34.5t54.5 -11.5q76 0 135 101l64 -17q-63 -117 -126 -167t-128 -50q-35 0 -68 13.5t-80 40.5q-37 23 -64.5 34t-54.5 11q-78 0 -137 -101z" />
<glyph unicode="&#x2000;" horiz-adv-x="956" />
<glyph unicode="&#x2001;" horiz-adv-x="1913" />
<glyph unicode="&#x2002;" horiz-adv-x="956" />
<glyph unicode="&#x2003;" horiz-adv-x="1913" />
<glyph unicode="&#x2004;" horiz-adv-x="637" />
<glyph unicode="&#x2005;" horiz-adv-x="478" />
<glyph unicode="&#x2006;" horiz-adv-x="318" />
<glyph unicode="&#x2007;" horiz-adv-x="318" />
<glyph unicode="&#x2008;" horiz-adv-x="239" />
<glyph unicode="&#x2009;" horiz-adv-x="382" />
<glyph unicode="&#x200a;" horiz-adv-x="106" />
<glyph unicode="&#x2010;" horiz-adv-x="739" d="M90 524l33 152h563l-33 -152h-563z" />
<glyph unicode="&#x2011;" horiz-adv-x="739" d="M90 524l33 152h563l-33 -152h-563z" />
<glyph unicode="&#x2012;" horiz-adv-x="739" d="M90 524l33 152h563l-33 -152h-563z" />
<glyph unicode="&#x2013;" horiz-adv-x="1271" d="M94 541l27 118h1096l-27 -118h-1096z" />
<glyph unicode="&#x2014;" horiz-adv-x="1998" d="M94 541l27 118h1823l-27 -118h-1823z" />
<glyph unicode="&#x2018;" horiz-adv-x="518" d="M244 1106q0 90 47 169t132 127t191 50l-16 -68q-80 -4 -130 -41.5t-50 -91.5q0 -25 11 -43t34 -43q25 -25 38 -46t13 -52q0 -49 -35 -82t-88 -33q-66 0 -106.5 44t-40.5 110z" />
<glyph unicode="&#x2019;" horiz-adv-x="518" d="M227 954l17 68q80 4 130 42t50 91q0 25 -11.5 43.5t-33.5 42.5q-25 25 -38 46.5t-13 51.5q0 49 34.5 82t88.5 33q66 0 106.5 -44t40.5 -110q0 -90 -47 -168.5t-132 -127t-192 -50.5z" />
<glyph unicode="&#x201a;" horiz-adv-x="491" d="M-78 -263l17 68q80 4 130 42t50 91q0 25 -11.5 43.5t-33.5 42.5q-25 25 -38 46.5t-13 51.5q0 49 34.5 82t88.5 33q66 0 106.5 -44t40.5 -110q0 -90 -47 -168.5t-132 -127t-192 -50.5z" />
<glyph unicode="&#x201c;" horiz-adv-x="946" d="M244 1106q0 90 47 169t132 127t191 50l-16 -68q-80 -4 -130 -41.5t-50 -91.5q0 -25 11 -43t34 -43q25 -25 38 -46t13 -52q0 -49 -35 -82t-88 -33q-66 0 -106.5 44t-40.5 110zM672 1106q0 90 47 169t132 127t191 50l-16 -68q-80 -4 -130 -41.5t-50 -91.5q0 -25 11 -43 t34 -43q25 -25 38 -46t13 -52q0 -49 -35 -82t-88 -33q-66 0 -106.5 44t-40.5 110z" />
<glyph unicode="&#x201d;" horiz-adv-x="946" d="M227 954l17 68q80 4 130 42t50 91q0 25 -11.5 43.5t-33.5 42.5q-25 25 -38 46.5t-13 51.5q0 49 34.5 82t88.5 33q66 0 106.5 -44t40.5 -110q0 -90 -47 -168.5t-132 -127t-192 -50.5zM655 954l17 68q80 4 130 42t50 91q0 25 -11.5 43.5t-33.5 42.5q-25 25 -38 46.5 t-13 51.5q0 49 34.5 82t88.5 33q66 0 106.5 -44t40.5 -110q0 -90 -47 -168.5t-132 -127t-192 -50.5z" />
<glyph unicode="&#x201e;" horiz-adv-x="913" d="M-78 -263l17 68q80 4 130 42t50 91q0 25 -11.5 43.5t-33.5 42.5q-25 25 -38 46.5t-13 51.5q0 49 34.5 82t88.5 33q66 0 106.5 -44t40.5 -110q0 -90 -47 -168.5t-132 -127t-192 -50.5zM344 -263l17 68q80 4 130 42t50 91q0 25 -11.5 43.5t-33.5 42.5q-25 25 -38 46.5 t-13 51.5q0 49 34.5 82t88.5 33q66 0 106.5 -44t40.5 -110q0 -90 -47 -168.5t-132 -127t-192 -50.5z" />
<glyph unicode="&#x2022;" horiz-adv-x="976" d="M213 676q0 84 42 156.5t114.5 114.5t158.5 42q84 0 157 -42t115 -114.5t42 -156.5q0 -86 -42 -159t-115 -115t-157 -42q-86 0 -158.5 42t-114.5 115t-42 159z" />
<glyph unicode="&#x2026;" horiz-adv-x="1521" d="M25 115q0 53 39.5 92t95.5 39q55 0 95 -39t40 -92t-40 -92t-95 -39q-56 0 -95.5 38.5t-39.5 92.5zM537 115q0 53 39.5 92t95.5 39q55 0 95 -39t40 -92t-40 -92t-95 -39q-56 0 -95.5 38.5t-39.5 92.5zM1049 115q0 53 39.5 92t95.5 39q55 0 95 -39t40 -92t-40 -92t-95 -39 q-56 0 -95.5 38.5t-39.5 92.5z" />
<glyph unicode="&#x202f;" horiz-adv-x="382" />
<glyph unicode="&#x2039;" horiz-adv-x="753" d="M152 535l2 10l505 405l58 -51l-387 -383l211 -383l-78 -43z" />
<glyph unicode="&#x203a;" horiz-adv-x="751" d="M43 141l387 383l-211 383l78 43l311 -444l-2 -10l-506 -406z" />
<glyph unicode="&#x205f;" horiz-adv-x="478" />
<glyph unicode="&#x20ac;" d="M76 578l22 94h150q8 72 31 143h-150l23 94h157q90 246 261 400.5t376 154.5q88 0 166 -20.5t156 -65.5l-76 -325h-72q6 172 -45 246.5t-147 74.5q-137 0 -249 -130t-175 -335h467l-45 -94h-449q-16 -72 -24 -143h413l-45 -94h-379q-2 -27 -2 -78q0 -188 70 -287.5 t201 -99.5q92 0 181 63.5t185 216.5l64 -31q-106 -205 -231.5 -299t-262.5 -94q-133 0 -226 68.5t-140.5 187.5t-47.5 267q0 29 5 86h-162z" />
<glyph unicode="&#x2122;" horiz-adv-x="1826" d="M258 1241l57 193h619l-29 -193h-41q-8 55 -19 83t-36 41t-76 13h-59l-129 -559q-12 -49 53 -57l16 -2l-8 -43h-289l9 43l18 2q66 8 78 57l129 559h-57q-74 0 -110 -28.5t-83 -108.5h-43zM874 717l9 43l20 2q33 4 52.5 20.5t29.5 57.5l115 491q2 6 2 17q0 20 -14.5 28 t-40.5 13l-17 2l8 43h228l110 -543l361 543h227l-8 -43l-21 -2q-66 -8 -77 -58l-119 -512q-12 -49 53 -57l16 -2l-8 -43h-289l9 43l18 2q68 8 80 57l119 512l-410 -614h-39l-125 612l-112 -489q-4 -20 -4 -29q0 -25 13 -35t40 -14l16 -2l-8 -43h-234z" />
<glyph unicode="&#x25fc;" horiz-adv-x="1034" d="M0 0v1034h1034v-1034h-1034z" />
</font>
</defs>
</svg>
