<?xml version="1.0" standalone="no"?>
<!DOCTYPE svg PUBLIC "-//W3C//DTD SVG 1.1//EN" "http://www.w3.org/Graphics/SVG/1.1/DTD/svg11.dtd" >
<svg xmlns="http://www.w3.org/2000/svg" xmlns:xlink="http://www.w3.org/1999/xlink" version="1.1">
<metadata></metadata>
<defs>
<font id="ivar_text_hydrobold" horiz-adv-x="1187" >
<font-face units-per-em="2048" ascent="1536" descent="-512" />
<missing-glyph horiz-adv-x="462" />
<glyph unicode="&#xfb01;" horiz-adv-x="1337" d="M33 881v102l145 45v78q0 141 77 234.5t197.5 138.5t254.5 45q129 0 221 -29t143 -69t68 -74q-20 -53 -66.5 -89t-97.5 -36q-55 0 -89 25.5t-73 76.5q-37 49 -66.5 71.5t-78.5 22.5q-74 0 -120 -75.5t-46 -231.5v-92h518l135 23h19v-836q0 -61 22.5 -86t77.5 -33l26 -4 v-88h-577v88l27 4q55 8 77.5 33t22.5 86v573q0 53 -26.5 75t-100.5 22h-221v-670q0 -61 22.5 -86t77.5 -33l27 -4v-88h-578v88l27 4q55 8 77.5 33t22.5 86v670h-145z" />
<glyph unicode="&#xfb02;" horiz-adv-x="1329" d="M33 881v102l145 43v80q0 141 77 234.5t197.5 138.5t254.5 45q158 0 268 -45l172 37h18v-1305q0 -61 22.5 -86t78.5 -33l26 -4v-88h-577v88l26 4q55 8 78 33t23 86v1077q-72 135 -174 135q-74 0 -120 -76.5t-46 -230.5v-92h229l-37 -143h-192v-670q0 -61 22.5 -86 t77.5 -33l27 -4v-88h-578v88l27 4q55 8 77.5 33t22.5 86v670h-145z" />
<glyph horiz-adv-x="0" />
<glyph horiz-adv-x="682" />
<glyph unicode=" "  horiz-adv-x="462" />
<glyph unicode="&#x09;" horiz-adv-x="462" />
<glyph unicode="&#xa0;" horiz-adv-x="462" />
<glyph unicode="!" horiz-adv-x="679" d="M145 1284q0 74 51.5 127t139.5 53t140 -54t52 -126q0 -78 -30 -221l-107 -582h-112l-107 586q-27 143 -27 217zM154 168q0 78 55 133t135 55q78 0 135.5 -55t57.5 -133q0 -76 -57.5 -132t-135.5 -56q-80 0 -135 55t-55 133z" />
<glyph unicode="&#x22;" horiz-adv-x="899" d="M92 1305q0 63 39 105t105 42q63 0 102 -42t39 -105q0 -43 -25 -154l-73 -328h-86l-76 328q-25 111 -25 154zM520 1305q0 63 39 105t105 42q63 0 102 -42t39 -105q0 -43 -25 -154l-73 -328h-86l-76 328q-25 111 -25 154z" />
<glyph unicode="#" d="M43 459v106h250l69 303h-223v107h248l107 459h120l-106 -459h289l106 459h121l-106 -459h225v-107h-250l-70 -303h224v-106h-248l-107 -459h-121l107 459h-289l-106 -459h-121l106 459h-225zM414 565h288l70 303h-289z" />
<glyph unicode="$" d="M98 90l13 430h102q76 -381 334 -426v492l-82 32q-195 78 -280 170.5t-85 241.5q0 115 57.5 209t160 152.5t229.5 70.5v148h115v-144q203 -10 368 -82l-8 -376h-102q-68 285 -258 329v-432l83 -33q205 -78 294 -178t89 -254q0 -127 -57 -228t-163.5 -165.5t-245.5 -77.5 v-180h-115v180q-133 6 -255 42t-194 79zM375 1153q0 -70 41 -115t131 -86v387q-80 -12 -126 -63t-46 -123zM662 94q88 15 138 73t50 146q0 80 -48 131.5t-140 92.5v-443z" />
<glyph unicode="%" horiz-adv-x="1882" d="M82 1092q0 109 54 192.5t141.5 129.5t181.5 46t181 -45t140.5 -127t53.5 -190q0 -109 -53.5 -192t-140.5 -129t-181 -46t-181.5 44t-141.5 127t-54 190zM311 1112q0 -133 44 -211t114 -78q55 0 95 67.5t40 188.5q0 135 -43 212t-112 77q-55 0 -96.5 -68.5t-41.5 -187.5z M377 0l952 1434h174l-952 -1434h-174zM1047 336q0 109 54 192.5t141 130t181 46.5t181.5 -45.5t140.5 -127t53 -190.5t-53 -191.5t-140 -129t-182 -46.5q-94 0 -181 44t-141 127t-54 190zM1278 356q0 -133 43 -210.5t113 -77.5q55 0 95 67.5t40 188.5q0 135 -43 211.5 t-113 76.5q-55 0 -95 -67.5t-40 -188.5z" />
<glyph unicode="&#x26;" horiz-adv-x="1435" d="M84 356q0 131 79 223.5t218 165.5q-94 117 -129 198t-35 171q0 84 52.5 165t148.5 133t221 52q115 0 204 -45t138 -117.5t49 -152.5q0 -131 -79 -218t-230 -159l311 -366q23 51 47 137q8 27 8 55q0 74 -83 84l-37 4v94h432v-94l-35 -4q-51 -6 -88 -43t-62 -115 q-37 -117 -94 -221l19 -20q92 -106 142 -143.5t108 -47.5l26 -4v-88h-393q-18 16 -80 82q-145 -111 -350 -111q-166 0 -280.5 53.5t-171 141.5t-56.5 190zM385 401q0 -123 75 -206.5t210 -83.5q110 0 194 61l-18 21l-377 446q-45 -53 -64.5 -110.5t-19.5 -127.5zM481 1176 q0 -63 36 -134t126 -180q84 55 123 121t39 166q0 84 -47 141.5t-125 57.5q-68 0 -110 -50.5t-42 -121.5z" />
<glyph unicode="'" horiz-adv-x="471" d="M92 1305q0 63 39 105t105 42q63 0 102 -42t39 -105q0 -43 -25 -154l-73 -328h-86l-76 328q-25 111 -25 154z" />
<glyph unicode="(" horiz-adv-x="784" d="M113 631q0 223 80.5 416.5t205.5 334t263 220.5l59 -50q-129 -158 -209 -388t-80 -533t80 -533.5t209 -388.5l-59 -49q-138 80 -263 220t-205.5 334t-80.5 417z" />
<glyph unicode=")" horiz-adv-x="784" d="M63 -291q131 160 211 390.5t80 531.5t-79.5 531.5t-211.5 389.5l60 50q137 -80 263 -220.5t207 -334t81 -416.5t-81 -417t-207 -334t-263 -220z" />
<glyph unicode="*" horiz-adv-x="1044" d="M143 944q0 23 12.5 43.5t32.5 32.5q31 18 299 90l-45 12q-225 66 -254 82q-20 12 -32.5 31.5t-12.5 42.5t13 43q27 45 75 45q23 0 45 -12q29 -18 232 -215q-72 264 -72 307q0 37 24.5 62.5t63.5 25.5q37 0 61.5 -25.5t24.5 -62.5q0 -41 -69 -303q195 195 225 211 q20 12 45 12q23 0 42 -12.5t34 -32.5q14 -20 14 -47q0 -23 -12 -42.5t-33 -29.5q-39 -20 -299 -90q268 -72 299 -92q45 -29 45 -74q0 -18 -14 -47q-27 -43 -74 -43q-18 0 -47 14q-31 20 -225 209q70 -258 69 -301q0 -37 -24.5 -62.5t-61.5 -25.5q-39 0 -63.5 25.5 t-24.5 62.5q0 45 72 305l-57 -55q-20 -18 -87 -81.5t-88 -76.5q-23 -12 -49 -12q-49 0 -71 41q-12 23 -13 45z" />
<glyph unicode="+" d="M123 596v168h377v387h188v-387h377v-168h-377v-387h-188v387h-377z" />
<glyph unicode="," horiz-adv-x="569" d="M80 -193q80 10 132 50.5t52 95.5q0 31 -18.5 49t-57.5 41q-49 27 -75.5 57.5t-26.5 87.5q0 68 51 117t127 49q98 0 154.5 -65.5t56.5 -169.5q0 -94 -47 -186.5t-136 -154t-212 -69.5v98z" />
<glyph unicode="-" horiz-adv-x="788" d="M92 492v227h604v-227h-604z" />
<glyph unicode="." horiz-adv-x="569" d="M92 168q0 78 56.5 133t134.5 55q80 0 137 -55t57 -133t-57.5 -133t-136.5 -55q-78 0 -134.5 55t-56.5 133z" />
<glyph unicode="/" horiz-adv-x="780" d="M-51 -307l651 1843h160l-651 -1843h-160z" />
<glyph unicode="0" horiz-adv-x="1280" d="M78 713q0 221 70.5 391t198.5 265t294 95t293 -93t197.5 -262t70.5 -388q0 -221 -70.5 -391t-197.5 -265.5t-293 -95.5q-168 0 -295 93.5t-197.5 262.5t-70.5 388zM436 737q0 -311 53.5 -480t165.5 -169q93 0 141 159t48 449q0 649 -217 650q-94 0 -142.5 -159 t-48.5 -450z" />
<glyph unicode="1" horiz-adv-x="976" d="M84 0v92l45 4q102 8 157.5 33t55.5 96v828q0 53 -19.5 72.5t-76.5 19.5h-162v84q262 90 432 205h150v-1209q0 -72 55 -96.5t156 -32.5l47 -4v-92h-840z" />
<glyph unicode="2" horiz-adv-x="1130" d="M37 0v76l188 217q188 219 269 321.5t124.5 196.5t43.5 197q0 106 -59.5 166.5t-160.5 60.5q-102 0 -165.5 -48t-124.5 -143l-97 50q51 141 168 256.5t328 115.5q139 0 238.5 -52t150.5 -140t51 -193q0 -137 -84 -270t-215 -257t-346 -296h293q106 0 161.5 13.5t87.5 49 t64 111.5h86l-51 -432h-950z" />
<glyph unicode="3" horiz-adv-x="1093" d="M33 190q27 57 77 92t113 35q45 0 78 -19t68 -73q51 -82 89 -114.5t97 -32.5q72 0 123 64.5t51 176.5q0 104 -60.5 180t-154.5 117t-195 50v104q113 25 213.5 101.5t100.5 201.5q0 86 -55.5 129t-157.5 43q-162 0 -264 -147l-90 59q55 127 170.5 218t304.5 91 q127 0 217 -42t136 -112.5t46 -154.5q0 -121 -74.5 -203t-183.5 -125q145 -53 233.5 -160.5t88.5 -246.5q0 -129 -65 -232.5t-177.5 -163t-251.5 -59.5q-186 0 -306 63.5t-171 159.5z" />
<glyph unicode="4" horiz-adv-x="1210" d="M80 305v207l616 922h277v-914h186l-55 -215h-131v-305h-316v305h-577zM229 520h428v633z" />
<glyph unicode="5" horiz-adv-x="1089" d="M16 190q27 57 77 92t116 35q43 0 76.5 -19t68.5 -73q51 -82 89 -114.5t100 -32.5q78 0 130 71.5t52 178.5q0 186 -155.5 280t-436.5 97l150 729h692l-53 -258h-572l-41 -211q330 -13 508 -152t178 -371q0 -133 -63.5 -241.5t-177 -171t-258.5 -62.5q-186 0 -307 63.5 t-173 159.5z" />
<glyph unicode="6" horiz-adv-x="1177" d="M78 549q0 258 114.5 455.5t313.5 315.5t444 144l25 -80q-213 -92 -348 -222t-185 -345q45 45 112 71.5t148 26.5q121 0 215.5 -53t146.5 -154.5t52 -238.5q0 -139 -65.5 -253t-180 -180.5t-256.5 -66.5q-170 0 -290.5 78t-183 210t-62.5 292zM416 557q0 -215 51 -343 t154 -128q79 0 122 97.5t43 252.5q0 156 -57 240t-162 84q-88 0 -143 -49q-8 -63 -8 -154z" />
<glyph unicode="7" horiz-adv-x="1077" d="M84 1034l39 400h934v-93q-193 -326 -298.5 -670.5t-140.5 -670.5h-372q51 266 209.5 585.5t386.5 590.5h-436q-109 0 -157 -36t-75 -106h-90z" />
<glyph unicode="8" horiz-adv-x="1198" d="M84 352q0 111 69.5 205t208.5 152q-121 82 -173 168t-52 188q0 109 59.5 200t167 145t246.5 54q133 0 235.5 -47t158 -128t55.5 -179q0 -106 -62.5 -181t-173.5 -118q119 -74 182.5 -140.5t86 -130t22.5 -143.5q0 -115 -65.5 -213t-182 -156.5t-264.5 -58.5 q-158 0 -275.5 51.5t-180 139.5t-62.5 192zM348 377q0 -127 72 -210t182 -83q96 0 151.5 60.5t55.5 160.5q0 90 -60.5 154.5t-179.5 130.5l-118 65q-102 -111 -103 -278zM428 1169q0 -127 172 -229l131 -74l4 -2q84 88 84 238q0 115 -57 181.5t-152 66.5q-75 0 -128.5 -49.5 t-53.5 -131.5z" />
<glyph unicode="9" horiz-adv-x="1177" d="M61 963q0 139 66 252.5t180.5 180t255.5 66.5q170 0 291 -77.5t182.5 -209t61.5 -292.5q0 -258 -115 -456t-312.5 -315.5t-443.5 -144.5l-26 80q213 92 349 223t185 346q-45 -47 -111.5 -73.5t-148.5 -26.5q-121 0 -215 53.5t-146.5 154.5t-52.5 239zM391 995 q0 -156 57.5 -239.5t161.5 -83.5q89 0 144 49q8 63 8 153q0 215 -51.5 343.5t-153.5 128.5q-80 0 -123 -97.5t-43 -253.5z" />
<glyph unicode=":" horiz-adv-x="643" d="M129 168q0 78 56.5 133t134.5 55q80 0 137 -55t57 -133t-57.5 -133t-136.5 -55q-78 0 -134.5 55t-56.5 133zM129 856q0 78 56.5 133t134.5 55q80 0 137 -55t57 -133t-57.5 -133t-136.5 -55q-78 0 -134.5 55t-56.5 133z" />
<glyph unicode=";" horiz-adv-x="643" d="M119 -193q80 10 132 50.5t52 95.5q0 31 -18.5 49t-57.5 41q-49 27 -75.5 57.5t-26.5 87.5q0 68 51 117t127 49q98 0 154.5 -65.5t56.5 -169.5q0 -94 -47 -186.5t-136 -154t-212 -69.5v98zM125 856q0 78 56.5 133t134.5 55q80 0 137 -55t57 -133t-57.5 -133t-136.5 -55 q-78 0 -134.5 55t-56.5 133z" />
<glyph unicode="&#x3c;" d="M123 602v156l942 313v-188l-678 -203l678 -203v-188z" />
<glyph unicode="=" d="M123 412v168h942v-168h-942zM123 780v168h942v-168h-942z" />
<glyph unicode="&#x3e;" d="M123 289v188l678 203l-678 203v188l942 -313v-156z" />
<glyph unicode="?" horiz-adv-x="948" d="M43 1194q33 109 146.5 190.5t299.5 81.5q131 0 229.5 -47t150 -126t51.5 -175q0 -80 -32 -144.5t-83 -118.5t-139 -132q-90 -80 -126 -124t-48 -101l-7 -29h-106l-8 29q-27 102 -27 157q0 63 25.5 115.5t83.5 122.5l32 39q68 82 96.5 131t28.5 115q0 78 -32.5 124 t-88.5 46q-43 0 -63 -29t-32.5 -63.5t-16.5 -47.5q-25 -61 -54.5 -85.5t-82.5 -24.5q-59 0 -112.5 25.5t-84.5 70.5zM262 168q0 78 56.5 133t136.5 55q78 0 135 -55t57 -133q0 -76 -57.5 -132t-134.5 -56q-80 0 -136.5 55t-56.5 133z" />
<glyph unicode="@" horiz-adv-x="1886" d="M57 436q0 274 136.5 486.5t359.5 328t479 115.5q215 0 397.5 -86t290 -244.5t107.5 -369.5q0 -168 -67.5 -305.5t-180.5 -215t-244 -77.5q-115 0 -190.5 62.5t-85.5 154.5q-59 -100 -140 -159.5t-169 -59.5q-111 0 -181.5 75.5t-70.5 216.5q0 143 70.5 285.5t193.5 236 t272 93.5q129 0 185 -70l135 58h51l-133 -562q-12 -61 -12 -104q0 -72 28.5 -104.5t73.5 -32.5q78 0 144.5 70.5t104.5 186t38 242.5q0 182 -81 318.5t-220.5 210.5t-311.5 74q-207 0 -382 -103.5t-279.5 -290t-104.5 -428.5q0 -238 103.5 -386t259 -212.5t323.5 -64.5 q147 0 274.5 35.5t225.5 103.5l47 -70q-109 -92 -260 -137t-309 -45q-199 0 -398.5 72.5t-339 247t-139.5 454.5zM731 401q0 -92 22.5 -137t71.5 -45q93 0 180 169t136 405q-12 39 -39 63.5t-70 24.5q-74 0 -144.5 -72t-113.5 -183.5t-43 -224.5z" />
<glyph unicode="A" horiz-adv-x="1538" d="M12 0v92l21 4q53 10 94 53.5t76 124.5l473 1160h196l478 -1178q33 -82 69.5 -116t85.5 -44l21 -4v-92h-676v92l31 4q63 8 95 28.5t32 59.5q0 29 -15 64l-61 153h-518l-60 -153q-14 -37 -14 -66q0 -39 28.5 -58.5t88.5 -27.5l30 -4v-92h-475zM461 522h424l-215 539z" />
<glyph unicode="B" horiz-adv-x="1404" d="M74 0v92l30 4q61 8 94 33t33 82v1012q0 57 -32.5 81.5t-94.5 32.5l-30 4v93h725q199 0 334 -82t135 -252q0 -135 -91.5 -216t-222.5 -108q101 -8 191 -52t147.5 -126t57.5 -197q0 -199 -142.5 -300t-367.5 -101h-766zM571 223q0 -57 33 -78.5t94 -21.5h56 q127 0 189.5 66.5t62.5 201.5q0 158 -77 230.5t-206 72.5h-152v-471zM571 817h136q106 0 166.5 60.5t60.5 191.5q0 135 -64.5 188.5t-175.5 53.5h-123v-494z" />
<glyph unicode="C" horiz-adv-x="1421" d="M74 713q0 219 98 391t267 267t378 95q119 0 241 -23.5t230 -74.5v-383h-106q-53 186 -145.5 272t-223.5 86q-172 0 -269.5 -157.5t-97.5 -421.5q0 -168 52.5 -306.5t153 -219t239.5 -80.5q123 0 216 60.5t171 189.5l94 -52q-82 -195 -227.5 -292t-343.5 -97 q-205 0 -371 94.5t-261 263.5t-95 388z" />
<glyph unicode="D" horiz-adv-x="1597" d="M74 0v92l30 4q61 8 94 33t33 82v1012q0 57 -32.5 81.5t-94.5 32.5l-30 4v93h723q213 0 377.5 -86t257 -248t92.5 -379q0 -219 -92.5 -382t-257 -251t-377.5 -88h-723zM571 231q0 -61 33 -82.5t109 -21.5h57q176 0 278.5 146.5t102.5 402.5q0 285 -106.5 458t-311.5 173 h-162v-1076z" />
<glyph unicode="E" horiz-adv-x="1359" d="M74 0v92l30 4q61 8 94 33t33 82v1012q0 57 -32.5 81.5t-94.5 32.5l-30 4v93h1140v-373h-102q-29 96 -63.5 147.5t-94 75t-163.5 23.5h-220v-504h131q92 0 138.5 35.5t68.5 124.5h92v-467h-92q-25 94 -70.5 137t-136.5 43h-131v-445q0 -59 35 -81.5t113 -22.5h90 q121 0 188.5 25.5t110.5 89t84 192.5h102l-30 -434h-1190z" />
<glyph unicode="F" horiz-adv-x="1304" d="M74 0v92l30 4q61 8 94 33t33 82v1012q0 57 -32.5 81.5t-94.5 32.5l-30 4v93h1151v-381h-103q-31 96 -65.5 149t-94 79t-159.5 26h-232v-527h150q92 0 138 36t69 126h92v-467h-92q-25 92 -71 135t-136 43h-150v-442q0 -59 36 -83t120 -32l37 -4v-92h-690z" />
<glyph unicode="G" horiz-adv-x="1529" d="M74 713q0 219 102.5 391t281.5 267t400 95q115 0 241 -24.5t232 -67.5v-379h-106q-59 188 -149.5 268t-223.5 80q-119 0 -211 -73.5t-143.5 -205.5t-51.5 -306q0 -190 52.5 -342t149.5 -239t226 -87q84 0 158 33v369q0 59 -29.5 80.5t-109.5 33.5l-29 4v92h637v-92 l-26 -4q-49 -6 -76 -31.5t-27 -82.5v-386q-119 -72 -260 -105.5t-278 -33.5q-219 0 -392.5 94.5t-270.5 263.5t-97 388z" />
<glyph unicode="H" horiz-adv-x="1697" d="M74 0v92l30 4q61 8 94 33t33 82v1012q0 57 -32.5 81.5t-94.5 32.5l-30 4v93h657v-93l-33 -4q-61 -8 -94 -32.5t-33 -81.5v-416h555v416q0 57 -32.5 81.5t-94.5 32.5l-30 4v93h655v-93l-31 -4q-61 -8 -94 -32.5t-33 -81.5v-1012q0 -57 33 -82t94 -33l31 -4v-92h-655v92 l30 4q61 8 94 33t33 82v469h-555v-469q0 -57 33 -82t94 -33l33 -4v-92h-657z" />
<glyph unicode="I" horiz-adv-x="821" d="M82 0v92l31 4q63 8 96 33t33 82v1012q0 57 -33 81.5t-96 32.5l-31 4v93h657v-93l-32 -4q-61 -8 -94 -32.5t-33 -81.5v-1012q0 -57 32.5 -82t94.5 -33l32 -4v-92h-657z" />
<glyph unicode="J" horiz-adv-x="1093" d="M12 145q27 61 74 97.5t111 36.5q51 0 81.5 -23t63.5 -72q41 -61 63.5 -85.5t57.5 -24.5q45 0 61.5 49t16.5 164v936q0 57 -33 81.5t-94 32.5l-31 4v93h655v-93l-30 -4q-61 -8 -94 -32.5t-33 -81.5v-820q0 -211 -128 -322.5t-335 -111.5q-158 0 -259.5 52.5t-146.5 123.5z " />
<glyph unicode="K" horiz-adv-x="1634" d="M74 0v92l30 4q61 8 94 33t33 82v1012q0 57 -32.5 81.5t-94.5 32.5l-30 4v93h657v-93l-33 -4q-61 -8 -94 -32.5t-33 -81.5v-502l473 463q51 51 52 90q0 31 -30 47t-81 20v93h563v-101q-182 -29 -399 -237l-227 -217l450 -615q66 -86 110 -118.5t99 -47.5l27 -6v-92h-666 v92l29 4q61 10 61 49q0 31 -31 72l-313 436l-117 -110v-332q0 -57 33 -82t94 -33l33 -4v-92h-657z" />
<glyph unicode="L" horiz-adv-x="1316" d="M74 0v92l30 4q61 8 94 33t33 82v1012q0 57 -32.5 81.5t-94.5 32.5l-30 4v93h657v-93l-33 -4q-61 -8 -94 -32.5t-33 -81.5v-992q0 -59 35 -81.5t113 -22.5h59q117 0 186.5 30.5t115.5 102.5t89 209h103l-37 -469h-1161z" />
<glyph unicode="M" horiz-adv-x="1966" d="M74 0v92l26 4q68 10 99.5 43t31.5 113v971q0 57 -32.5 81.5t-94.5 32.5l-30 4v93h508l401 -969l408 969h501v-93l-30 -4q-62 -8 -94.5 -32.5t-32.5 -81.5v-1012q0 -57 32.5 -82t94.5 -33l30 -4v-92h-655v92l31 4q61 8 94 33t33 82v862l-451 -1073h-100l-451 1083v-831 q0 -80 32 -113t99 -43l27 -4v-92h-477z" />
<glyph unicode="N" horiz-adv-x="1574" d="M66 0v92l26 4q68 10 100.5 43t32.5 113v971q0 57 -32.5 81.5t-96.5 32.5l-30 4v93h430l708 -873v621q0 80 -31.5 112.5t-99.5 42.5l-26 4v93h477v-93l-27 -4q-68 -10 -99.5 -42.5t-31.5 -112.5v-1184h-131l-850 1044v-790q0 -80 32 -113t99 -43l27 -4v-92h-477z" />
<glyph unicode="O" horiz-adv-x="1630" d="M74 713q0 219 99 391t269 267t375 95q203 0 372 -94t268 -264t99 -387q0 -219 -99 -391t-268 -267.5t-372 -95.5q-205 0 -375 94.5t-269 264.5t-99 387zM446 758q0 -184 47.5 -337t134.5 -242t203 -89q103 0 183 75t125 208t45 303q0 184 -46 336.5t-132 241.5t-203 89 q-102 0 -183 -73.5t-127.5 -206.5t-46.5 -305z" />
<glyph unicode="P" horiz-adv-x="1370" d="M74 0v92l30 4q61 8 94 33t33 82v1012q0 57 -32.5 81.5t-94.5 32.5l-30 4v93h727q145 0 266 -47.5t193.5 -140.5t72.5 -226q0 -139 -70.5 -235.5t-188.5 -144.5t-263 -48h-240v-381q0 -57 41 -81t115 -34l33 -4v-92h-686zM571 719h152q133 0 196.5 70.5t63.5 216.5 q0 156 -79 228.5t-193 72.5h-140v-588z" />
<glyph unicode="Q" horiz-adv-x="1630" d="M74 713q0 219 99 391t269 267t375 95q203 0 372 -94t268 -264t99 -387q0 -252 -130 -439.5t-341 -267.5l56 -41q98 -72 169.5 -102.5t147.5 -30.5q62 1 119 17v-82q-61 -43 -142 -73t-169 -30q-119 0 -220.5 44t-205.5 128l-168 136q-170 31 -306.5 130t-214 254.5 t-77.5 348.5zM446 758q0 -184 47.5 -337t134.5 -242t203 -89q102 0 182.5 75t125.5 208t45 303q0 184 -46 336.5t-132 241.5t-203 89q-103 0 -183.5 -73.5t-127 -206.5t-46.5 -305z" />
<glyph unicode="R" horiz-adv-x="1521" d="M74 0v92l30 4q61 8 94 33t33 82v1012q0 57 -32.5 81.5t-94.5 32.5l-30 4v93h725q229 0 379.5 -95.5t150.5 -281.5q0 -139 -84 -231.5t-231 -135.5l235 -356q90 -135 136.5 -178t103.5 -58l24 -6v-92h-426q-57 72 -147 215l-195 311q-43 70 -71.5 93.5t-73.5 23.5h-29 v-432q0 -57 33 -82t94 -33l33 -4v-92h-657zM571 766h154q125 0 198.5 64.5t73.5 195.5q0 147 -91 214t-218 67h-117v-541z" />
<glyph unicode="S" horiz-adv-x="1236" d="M111 90l12 430h106q41 -197 140.5 -313.5t269.5 -116.5q113 0 180.5 61.5t67.5 161.5q0 70 -37 117t-96.5 78t-163.5 72l-101 38q-201 78 -288.5 170.5t-87.5 241.5q0 125 69.5 224.5t191.5 155.5t271 56q229 0 426 -82l-8 -376h-105q-80 335 -333 335h-2 q-102 0 -164 -53t-62 -137q0 -86 62.5 -136t214.5 -106l104 -39q213 -78 304.5 -177t91.5 -255q0 -137 -69 -244.5t-195 -168t-287 -60.5q-150 0 -291.5 38t-220.5 85z" />
<glyph unicode="T" horiz-adv-x="1425" d="M55 1051l27 383h1261l27 -383h-106q-47 135 -114 195.5t-204 60.5h-63v-1096q0 -57 32.5 -82t94.5 -33l30 -4v-92h-655v92l31 4q61 8 94 33t33 82v1096h-62q-96 0 -156.5 -29t-96 -83t-66.5 -144h-107z" />
<glyph unicode="U" horiz-adv-x="1536" d="M51 1341v93h668v-93l-31 -4q-68 -8 -103.5 -34.5t-35.5 -88.5v-714q0 -172 85 -257t232 -85q139 0 219 80.5t80 236.5v707q0 80 -31.5 112.5t-99.5 42.5l-26 4v93h477v-93l-27 -4q-68 -10 -99.5 -42.5t-31.5 -112.5v-711q0 -231 -138 -367.5t-394 -136.5 q-289 0 -436.5 138.5t-147.5 386.5v722q0 61 -33 88t-96 35z" />
<glyph unicode="V" horiz-adv-x="1533" d="M20 1341v93h682v-93l-28 -4q-68 -10 -100.5 -31.5t-32.5 -62.5q0 -25 12 -59l311 -787l307 787q14 37 15 65q0 39 -31 59.5t-92 28.5l-29 4v93h479v-93l-22 -4q-55 -10 -95 -50t-77 -128l-469 -1163h-176l-477 1180q-33 82 -71 116.5t-87 44.5z" />
<glyph unicode="W" horiz-adv-x="2289" d="M25 1341v93h673v-93l-30 -4q-66 -8 -98.5 -28.5t-32.5 -61.5q0 -20 14 -63l287 -791l241 637l-53 146q-31 82 -64.5 116.5t-80.5 44.5l-19 4v93h649v-93l-28 -4q-66 -10 -97.5 -30.5t-31.5 -59.5q0 -27 12 -63l279 -785l280 785q14 37 14 65q0 41 -29.5 60.5t-90.5 27.5 l-33 4v93h479v-93l-22 -4q-57 -10 -97.5 -50t-72.5 -128l-435 -1165h-186l-301 835l-322 -835h-186l-440 1182q-31 82 -69 116.5t-89 44.5z" />
<glyph unicode="X" horiz-adv-x="1583" d="M41 0v92l20 4q55 12 117 55.5t119 120.5l307 428l-321 455q-66 92 -110 133t-93 49l-25 4l2 93h680v-93l-39 -4q-104 -8 -104 -65q0 -29 31 -76l219 -315l227 315q37 49 37 82q0 49 -96 59l-39 4v93h524l-2 -93l-29 -4q-72 -10 -127 -54t-127 -134l-288 -375l372 -522 q51 -72 102.5 -106.5t123.5 -49.5l20 -4v-92h-690v92l39 4q82 8 82 56q0 35 -39 86l-248 346l-242 -346q-30 -44 -30 -74q0 -57 98 -68l41 -4v-92h-512z" />
<glyph unicode="Y" horiz-adv-x="1437" d="M20 1341v93h699v-93l-39 -4q-57 -6 -87 -23.5t-30 -49.5q0 -29 25 -72l235 -399l219 391q25 43 25 71q0 68 -121 82l-31 4v93h502v-93l-22 -4q-63 -12 -110.5 -51t-102.5 -137l-281 -485v-453q0 -57 33 -82t94 -33l31 -4v-92h-656v92l31 4q61 8 94 33t33 82v401l-346 576 q-49 82 -83 110.5t-91 38.5z" />
<glyph unicode="Z" horiz-adv-x="1357" d="M49 0v94l828 1213h-306q-121 0 -183 -23.5t-99 -79t-78 -174.5h-105l29 404h1149v-95l-823 -1212h315q141 0 213 26.5t113 90t88 205.5h102l-28 -449h-1215z" />
<glyph unicode="[" horiz-adv-x="823" d="M207 -264v1802h545v-102h-254v-1598h254v-102h-545z" />
<glyph unicode="\" horiz-adv-x="780" d="M20 1536h160l651 -1843h-159z" />
<glyph unicode="]" horiz-adv-x="823" d="M72 -162h254v1598h-254v102h544v-1802h-544v102z" />
<glyph unicode="^" horiz-adv-x="1249" d="M92 532l455 902h155l455 -902h-194l-338 680l-338 -680h-195z" />
<glyph unicode="_" horiz-adv-x="1155" d="M-6 -195h1167v-102h-1167v102z" />
<glyph unicode="`" horiz-adv-x="1228" d="M398 1485v28h317l119 -364h-105z" />
<glyph unicode="a" horiz-adv-x="1130" d="M63 256q0 106 67 166.5t204 99.5l315 90v142q0 102 -37 150t-90 48q-47 0 -67.5 -31.5t-46.5 -117.5q-18 -61 -50 -85t-88 -24q-63 0 -113.5 32t-68.5 67q18 61 70.5 120.5t148.5 99.5t234 40q223 0 325.5 -91.5t102.5 -236.5v-504q0 -49 22.5 -70.5t67.5 -21.5 q20 0 45 8v-63q-43 -49 -110.5 -73t-139.5 -24q-90 0 -137 38t-62 96q-47 -63 -119.5 -99.5t-162.5 -36.5t-160 38t-110 101.5t-40 141.5zM379 317q0 -78 44 -126t109 -48q70 0 117 47v318l-155 -51q-63 -20 -89 -51t-26 -89z" />
<glyph unicode="b" horiz-adv-x="1245" d="M16 1346v77l433 93h18v-605q45 55 121 95.5t176 40.5q121 0 215 -61.5t148.5 -176.5t54.5 -268q0 -166 -69 -295t-200 -201t-309 -72q-139 0 -263 35t-198 92v1117q0 59 -25.5 83.5t-101.5 45.5zM467 152q59 -68 145 -68q113 0 168.5 101.5t55.5 308.5q0 188 -61.5 283 t-168.5 95q-78 0 -139 -47v-673z" />
<glyph unicode="c" horiz-adv-x="1030" d="M57 487q0 160 72 289t193.5 203t265.5 74q129 0 217 -39t134 -92.5t58 -102.5q-27 -57 -76 -89t-104 -32q-51 0 -81.5 23.5t-53.5 79.5q-35 80 -59.5 110.5t-75.5 30.5q-76 0 -128 -82t-52 -254q0 -188 88 -291.5t223 -103.5q86 0 149.5 41t120.5 123l66 -35 q-117 -367 -453 -367q-155 0 -269 68t-174.5 184.5t-60.5 261.5z" />
<glyph unicode="d" horiz-adv-x="1265" d="M61 483q0 166 69 294t199 200t304 72q72 0 143 -17v185q0 59 -25.5 83.5t-101.5 45.5v77l432 93h19v-1256q0 -61 27.5 -90t101.5 -41v-78l-373 -69q-49 49 -70 145q-43 -61 -121.5 -106.5t-185.5 -45.5q-121 0 -215 61.5t-148.5 177.5t-54.5 269zM408 530q0 -188 62 -284 t169 -96q80 0 137 47v28v633q-53 80 -147 80q-106 0 -163.5 -102.5t-57.5 -305.5z" />
<glyph unicode="e" horiz-adv-x="1071" d="M57 485q0 166 70 296t186.5 201t251.5 71q141 0 241.5 -60.5t152 -159t51.5 -210.5q0 -47 -2 -64h-648q8 -180 98.5 -264t223.5 -84q88 0 151.5 38t120.5 118l68 -35q-61 -180 -182 -270.5t-285 -90.5q-145 0 -258 63.5t-176.5 180.5t-63.5 270zM362 668h347 q-8 127 -50.5 201.5t-113.5 74.5q-76 0 -124 -71.5t-59 -204.5z" />
<glyph unicode="f" horiz-adv-x="757" d="M33 881v102l145 43v80q0 139 65.5 233.5t166 139.5t211.5 45q143 0 225 -48.5t112 -103.5q-20 -55 -64 -87t-97 -32q-45 0 -70 17.5t-51 62.5q-6 8 -21.5 34t-32 40t-36.5 14q-49 0 -66.5 -69.5t-17.5 -241.5v-86h252l-37 -143h-215v-670q0 -61 28.5 -85t114.5 -34l39 -4 v-88h-633v88l27 4q55 8 77.5 33t22.5 86v670h-145z" />
<glyph unicode="g" horiz-adv-x="1116" d="M16 -223q0 72 57.5 122t149.5 70q-149 53 -149 181q0 82 57 141t154 94q-100 47 -158.5 128t-58.5 181t60 182t162.5 129.5t223.5 47.5q127 0 246 -49h358l-37 -144h-180q74 -74 74 -174q0 -96 -60.5 -177t-165 -127t-229.5 -46q-92 0 -168 24q-37 -33 -37 -65 q0 -47 54.5 -64.5t169.5 -17.5h120q422 0 422 -248q0 -113 -79.5 -209t-223 -152.5t-325.5 -56.5q-195 0 -316 62.5t-121 167.5zM266 -152q0 -82 75 -132t210 -50q117 0 186.5 48t69.5 120q0 51 -40 75.5t-132 24.5h-154q-110 1 -184 15q-31 -37 -31 -101zM377 711 q0 -117 43 -194t110 -77q62 0 99 66.5t37 173.5q0 117 -43 192.5t-111 75.5q-63 0 -99 -65.5t-36 -171.5z" />
<glyph unicode="h" horiz-adv-x="1325" d="M47 0v88l27 4q55 8 77.5 33t22.5 86v1006q0 59 -25.5 83.5t-101.5 45.5v77l432 93h19v-639q51 72 140 124t200 52q168 0 246.5 -94.5t78.5 -229.5v-518q0 -61 22.5 -86t78.5 -33l26 -4v-88h-569v88l29 4q49 6 69.5 32t20.5 87v483q0 80 -43 125t-123 45 q-51 0 -97.5 -17.5t-78.5 -47.5v-588q0 -61 22.5 -86t77.5 -33l29 -4v-88h-580z" />
<glyph unicode="i" horiz-adv-x="673" d="M57 0v88l27 4q55 8 77.5 33t22.5 86v537q0 59 -25.5 83.5t-101.5 45.5v77l432 93h19v-836q0 -61 22.5 -86t77.5 -33l27 -4v-88h-578zM162 1341q0 68 52 118t126 50t125 -50t51 -118t-51.5 -117.5t-124.5 -49.5q-74 0 -126 50t-52 117z" />
<glyph unicode="j" horiz-adv-x="641" d="M-252 -301q23 43 65 75.5t91 32.5q41 0 64.5 -17t47.5 -54q33 -47 53.5 -67.5t47.5 -20.5q39 0 50 49t11 172v879q0 59 -24.5 82.5t-102.5 46.5v77l432 93h19v-1074q0 -211 -119 -318.5t-311 -107.5q-121 0 -210 47.5t-114 104.5zM156 1341q0 68 52 118t126 50t125 -50 t51 -118t-51.5 -117.5t-124.5 -49.5q-74 0 -126 50t-52 117z" />
<glyph unicode="k" horiz-adv-x="1298" d="M47 0v88l27 4q55 8 77.5 33t22.5 86v1006q0 59 -25.5 83.5t-101.5 45.5v77l432 93h19v-988l260 244q78 72 78 115q0 33 -60 43l-28 4v90h485v-88q-156 -39 -346 -213l-76 -68l285 -405q55 -80 91 -112t87 -44l29 -6v-88h-572v88l25 2q49 4 49 31q0 23 -31 67l-182 267 l-94 -86v-158q0 -61 22.5 -86t77.5 -33l29 -4v-88h-580z" />
<glyph unicode="l" horiz-adv-x="663" d="M47 0v88l27 4q55 8 77.5 33t22.5 86v1006q0 59 -25.5 83.5t-101.5 45.5v77l432 93h19v-1305q0 -61 22.5 -86t77.5 -33l29 -4v-88h-580z" />
<glyph unicode="m" horiz-adv-x="1976" d="M57 0v88l27 4q55 8 77.5 33t22.5 86v534q0 59 -25.5 84t-101.5 48v77l422 93h19v-183q47 76 138 132.5t210 56.5q121 0 193.5 -53.5t103.5 -141.5q47 78 140 136.5t212 58.5q168 0 244 -93.5t76 -230.5v-518q0 -61 21.5 -86t76.5 -33l29 -4v-88h-568v88l27 4 q51 8 70.5 33t19.5 86v483q0 82 -41 127t-119 45q-51 0 -96 -18.5t-78 -50.5q6 -33 6 -68v-518q0 -61 19.5 -86t70.5 -33l27 -4v-88h-559v88l27 4q51 8 71.5 33t20.5 86v483q0 82 -41 127t-119 45q-51 0 -95 -18.5t-77 -48.5v-588q0 -61 20.5 -87t69.5 -32l31 -4v-88h-572z " />
<glyph unicode="n" horiz-adv-x="1329" d="M57 0v88l27 4q55 8 77.5 33t22.5 86v534q0 59 -25.5 84t-101.5 48v77l422 93h19v-185q51 76 142 133.5t208 57.5q168 0 243.5 -92.5t75.5 -227.5v-522q0 -61 22.5 -86t78.5 -33l26 -4v-88h-569v88l29 4q49 6 69.5 32t20.5 87v487q0 80 -41 123t-119 43q-51 0 -97 -17.5 t-79 -47.5v-588q0 -61 21.5 -87t70.5 -32l31 -4v-88h-574z" />
<glyph unicode="o" horiz-adv-x="1232" d="M57 508q0 156 76 280.5t205 194.5t280 70q150 0 278 -67.5t204 -190.5t76 -279t-76 -280.5t-204 -194.5t-278 -70q-151 0 -280 67.5t-205 190.5t-76 279zM408 547q0 -119 26.5 -226.5t76.5 -173t120 -65.5q94 0 144 109.5t50 285.5q0 129 -27.5 235.5t-76.5 168 t-115 61.5q-94 0 -146 -109.5t-52 -285.5z" />
<glyph unicode="p" horiz-adv-x="1275" d="M47 -342l27 4q55 8 77.5 32.5t22.5 86.5v964q0 59 -25.5 84t-101.5 48v77l422 93h18v-152q37 61 118 106.5t190 45.5q118 0 213.5 -61.5t149.5 -177.5t54 -267q0 -166 -68.5 -295t-196.5 -201t-300 -72q-74 0 -149 17v-209q0 -61 20.5 -87t69.5 -32l30 -4v-88h-571v88z M498 152q61 -68 151 -68q217 0 217 414q0 186 -60.5 280t-168.5 94q-78 0 -139 -47v-673z" />
<glyph unicode="q" horiz-adv-x="1234" d="M61 483q0 166 70 294t200 200t304 72q135 0 244 -52l202 50h19v-1266q0 -61 20.5 -87t71.5 -32l29 -4v-88h-572v88l27 4q55 8 77.5 32.5t22.5 86.5v332q-43 -57 -119.5 -97.5t-177.5 -40.5q-121 0 -215 61.5t-148.5 177.5t-54.5 269zM408 530q0 -188 62 -284t167 -96 q84 0 139 45v661q-53 82 -145 82q-109 0 -166 -102.5t-57 -305.5z" />
<glyph unicode="r" horiz-adv-x="985" d="M57 0v88l27 4q55 8 77.5 33t22.5 86v534q0 59 -25.5 84t-101.5 48v77l422 93h19v-261q39 102 111.5 181.5t174.5 79.5q68 0 122.5 -37t80.5 -76q-14 -63 -67.5 -128t-116.5 -65q-41 0 -96 29q-53 29 -89 29q-68 0 -110 -97v-491q0 -61 29.5 -85t115.5 -34l37 -4v-88h-633 z" />
<glyph unicode="s" horiz-adv-x="972" d="M88 721q0 94 55.5 170t153.5 119t223 43q96 0 187.5 -17.5t154.5 -42.5l-8 -284h-100q-70 233 -256 233q-66 0 -104 -32.5t-38 -82.5q0 -49 36 -81.5t132 -69.5l76 -29q176 -66 250 -132t74 -185q0 -106 -55.5 -188.5t-155 -126.5t-226.5 -44q-213 0 -397 80l8 324h103 q35 -127 108.5 -210t188.5 -83q74 0 116.5 36t42.5 97q0 57 -44 88t-160 76l-74 29q-152 57 -221.5 124.5t-69.5 188.5z" />
<glyph unicode="t" horiz-adv-x="796" d="M33 881v102q199 55 305 299h156v-258h276l-37 -143h-239v-588q0 -74 38.5 -111t112.5 -37q68 0 129 25v-98q-53 -45 -134 -72t-167 -27q-141 0 -222 71t-81 208v629h-137z" />
<glyph unicode="u" horiz-adv-x="1286" d="M31 891v76l432 80h18v-721q0 -80 44 -127t130 -47q88 0 140 51v16v543q0 57 -23.5 82.5t-103.5 46.5v76l432 80h18v-787q0 -63 26.5 -91t100.5 -40v-78l-371 -69q-49 49 -69 149q-49 -68 -128 -112t-185 -44q-168 0 -251 92.5t-83 235.5v459q0 57 -24.5 82.5t-102.5 46.5 z" />
<glyph unicode="v" horiz-adv-x="1169" d="M12 934v90h584v-90l-29 -4q-96 -12 -96 -88q0 -37 25 -99l178 -419l170 407q30 72 30 114q0 40 -21.5 59.5t-66.5 25.5l-28 4v90h407v-90q-59 -16 -100 -62.5t-90 -162.5l-311 -713h-175l-311 711q-53 123 -87 169t-79 58z" />
<glyph unicode="w" horiz-adv-x="1779" d="M12 934v90h572v-90l-29 -4q-90 -12 -90 -86q0 -39 24 -101l168 -421l172 411q-45 119 -74.5 157t-66.5 44v90h551v-90l-29 -4q-47 -6 -69.5 -26.5t-22.5 -59.5q0 -43 23 -101l155 -417l162 405q31 78 31 119q0 37 -20.5 55.5t-63.5 24.5l-29 4v90h400v-90 q-59 -16 -98.5 -62.5t-88.5 -164.5l-299 -711h-176l-217 565l-246 -565h-174l-301 711q-43 100 -64.5 142t-43 61.5t-56.5 23.5z" />
<glyph unicode="x" horiz-adv-x="1193" d="M23 0v88q57 14 108 49t105 109l182 250l-205 282q-61 84 -98 116t-78 40v90h579v-90l-38 -6q-53 -10 -54 -49q0 -31 37 -84l119 -164l121 174q33 47 33 78q0 39 -54 45l-41 6v90h418v-90q-68 -12 -117 -46t-112 -122l-166 -223l207 -281q63 -90 110 -128t92 -46v-88h-587 v88l41 6q45 8 45 43t-37 86l-129 185l-125 -179q-33 -45 -33 -77q0 -45 72 -58l39 -6v-88h-434z" />
<glyph unicode="y" horiz-adv-x="1161" d="M12 934v90h576v-90l-29 -4q-47 -6 -70.5 -26.5t-23.5 -59.5q0 -41 27 -101l178 -411l166 399q28 72 28 110q0 77 -88 89l-28 4v90h409v-90q-57 -14 -98 -61.5t-92 -163.5l-322 -738q-72 -164 -132 -253t-121.5 -123.5t-143.5 -34.5q-68 0 -120 19.5t-85 49.5 q16 76 59 131.5t117 55.5q33 0 90 -15q45 -12 64 -12q35 0 62.5 29.5t72.5 126.5l-332 762q-53 123 -86 169t-78 58z" />
<glyph unicode="z" horiz-adv-x="1079" d="M63 0v80l566 829h-123q-94 0 -150.5 -23.5t-91.5 -75.5t-63 -151h-97l25 365h885v-80l-565 -829h155q100 0 158.5 26.5t94.5 84t71 165.5h96l-27 -391h-934z" />
<glyph unicode="{" horiz-adv-x="841" d="M63 590v94l27 4q63 10 96 47t46.5 119t13.5 240q0 250 111.5 347t326.5 97h86v-102h-63q-98 0 -135 -44t-37 -161v-178q0 -186 -53.5 -284.5t-198.5 -131.5q145 -33 198.5 -131t53.5 -285v-178q0 -117 36.5 -161t135.5 -44h63v-102h-86q-215 0 -326.5 97t-111.5 347 q0 160 -13.5 242t-46 117.5t-96.5 46.5z" />
<glyph unicode="|" horiz-adv-x="675" d="M262 -291v1827h152v-1827h-152z" />
<glyph unicode="}" horiz-adv-x="841" d="M72 -162h63q98 0 135 44t37 161v178q0 186 53.5 284.5t198.5 131.5q-145 33 -198.5 131t-53.5 285v178q0 117 -37 161t-135 44h-63v102h86q215 0 327.5 -97.5t112.5 -346.5q0 -158 13.5 -241t45 -119t95.5 -46l28 -4v-94l-28 -4q-63 -10 -95 -47t-45.5 -119t-13.5 -240 q0 -250 -112.5 -347t-327.5 -97h-86v102z" />
<glyph unicode="~" d="M133 545q37 172 107.5 241.5t162.5 69.5q55 0 104.5 -16.5t121.5 -48.5q59 -29 98 -42.5t78 -13.5q104 0 131 117h119q-37 -172 -107.5 -241.5t-163.5 -69.5q-55 0 -104 16t-121 49q-59 29 -98 42.5t-78 13.5q-104 0 -131 -117h-119z" />
<glyph unicode="&#xa1;" horiz-adv-x="651" d="M131 858q0 78 56.5 133.5t136.5 55.5q77 0 133.5 -55.5t56.5 -133.5t-56.5 -133t-133.5 -55q-80 0 -136.5 55t-56.5 133zM139 -258q0 76 29 221l106 582h113l107 -586q29 -141 28 -217q0 -74 -51 -127t-139 -53q-90 0 -141.5 53t-51.5 127z" />
<glyph unicode="&#xa2;" horiz-adv-x="1069" d="M63 487q0 145 59.5 266t163 198t230.5 96v153h107v-147q172 -6 263 -80t118 -156q-31 -55 -75 -82.5t-95 -27.5q-49 0 -80 22.5t-58 77.5q-25 53 -39 78.5t-34 42.5v-738q37 -4 55 -4q88 0 153.5 46.5t122.5 142.5l66 -35q-108 -334 -397 -365v-186h-107v186 q-141 10 -243.5 80t-156 182.5t-53.5 249.5zM362 602q0 -141 41 -234.5t113 -138.5v717q-70 -16 -112 -100t-42 -244z" />
<glyph unicode="&#xa3;" d="M74 0v78q207 199 207 450q0 59 -7 109h-163v123h141l-12 49q-18 72 -27.5 119t-9.5 108q0 117 55 214.5t158.5 153.5t242.5 56q166 0 277 -66.5t149 -164.5q-29 -59 -81 -91t-107 -32q-47 0 -76.5 20.5t-50.5 67.5q-8 16 -25.5 59t-40 66.5t-55.5 23.5q-119 0 -119 -268 q0 -88 6.5 -162.5t8.5 -91.5l6 -61h297v-123h-293q-6 -205 -203 -379h336q109 0 162 13.5t84 48t63 112.5h88l-51 -432h-960z" />
<glyph unicode="&#xa4;" d="M164 264l174 174q-88 104 -88 242q0 135 86 242l-172 172l57 57l174 -174q102 84 240 84q137 0 239 -84l175 174l57 -57l-172 -172q86 -106 86 -242q0 -138 -88 -242l174 -174l-57 -57l-175 174q-104 -82 -239 -82t-240 82l-174 -174zM342 680q0 -80 39 -147.5 t106.5 -107.5t147.5 -40t147.5 40t106.5 107.5t39 147.5t-39 147.5t-106.5 107.5t-147.5 40t-147.5 -40t-106.5 -107.5t-39 -147.5z" />
<glyph unicode="&#xa5;" d="M6 1343v91h602v-91l-35 -4q-51 -4 -76.5 -19t-25.5 -48q0 -27 25 -80l182 -381l182 375q27 53 27 86q0 31 -24.5 45t-80.5 22l-28 4v91h442v-91l-22 -4q-49 -10 -86 -50t-91 -142l-192 -387h252v-113h-291v-125h291v-112h-291v-201q0 -57 32.5 -82t94.5 -33l29 -4v-90 h-635v90l28 4q61 8 94 33t33 82v201h-303v112h303v125h-303v113h244l-225 430q-41 78 -70 109.5t-63 39.5z" />
<glyph unicode="&#xa6;" horiz-adv-x="675" d="M262 -287v776h152v-776h-152zM262 752v776h152v-776h-152z" />
<glyph unicode="&#xa7;" horiz-adv-x="1097" d="M111 496q0 113 66.5 204t178.5 148q-80 59 -118.5 122.5t-38.5 149.5t50 166t137 129t194 49q127 0 219 -53t116 -123q-16 -47 -54 -77.5t-89 -30.5q-41 0 -66.5 21.5t-54.5 72.5q-29 49 -52.5 72.5t-63.5 23.5q-57 0 -91 -41t-34 -102q0 -59 45 -105.5t133 -105.5 l160 -109q129 -86 183 -157.5t54 -169.5q0 -113 -66.5 -204t-177.5 -149q80 -59 118 -122.5t38 -149.5t-49 -166t-136 -129t-194 -49q-127 0 -220 53t-116 123q16 47 54 78t90 31q39 0 64.5 -21.5t53.5 -73.5q29 -49 52.5 -72.5t66.5 -23.5q55 0 89 42t34 101t-44 105.5 t-132 105.5l-160 109q-129 88 -184 159.5t-55 168.5zM330 629q0 -74 48 -130.5t150 -125.5l154 -105q84 72 84 178q0 74 -48 130.5t-151 125.5l-153 105q-84 -72 -84 -178z" />
<glyph unicode="&#xa8;" horiz-adv-x="1228" d="M235 1339q0 63 47 108.5t115 45.5q66 0 113 -45t47 -109q0 -63 -47.5 -108t-112.5 -45q-68 0 -115 45t-47 108zM671 1339q0 63 47.5 108.5t112.5 45.5q68 0 115 -45t47 -109q0 -63 -47 -108t-115 -45q-65 0 -112.5 45t-47.5 108z" />
<glyph unicode="&#xa9;" horiz-adv-x="1650" d="M74 717q0 203 100 373t273.5 270t377.5 100q205 0 377 -100t272.5 -271t100.5 -372q0 -203 -100.5 -374t-272.5 -271.5t-377 -100.5q-207 0 -379 100.5t-272 271.5t-100 374zM182 717q0 -174 86 -322.5t234.5 -236.5t322.5 -88t321.5 88t234.5 236.5t87 322.5t-87 322.5 t-234.5 236.5t-321.5 88t-322.5 -88t-234.5 -236.5t-86 -322.5zM385 709q0 137 63.5 243.5t170 165t229.5 58.5q170 0 297 -64v-252h-76q-61 207 -229 207q-61 0 -115.5 -38t-88.5 -111.5t-34 -174.5q0 -150 77 -245t204 -95q84 0 141 35t106 105l68 -39 q-49 -111 -141 -181.5t-230 -70.5q-125 0 -225 57.5t-158.5 160.5t-58.5 239z" />
<glyph unicode="&#xaa;" horiz-adv-x="825" d="M41 868q0 80 50 125t153 74l235 66v108q0 78 -27.5 114t-68.5 36q-33 0 -47 -22.5t-37 -90.5q-14 -45 -38.5 -62.5t-65.5 -17.5q-47 0 -84 22.5t-52 49.5q18 74 104.5 135t233.5 61q168 0 245 -68.5t77 -176.5v-379q0 -68 67 -68q15 0 35 4v-47q-33 -37 -84 -54.5 t-102 -17.5q-68 0 -103.5 29t-46.5 70q-78 -100 -213 -101q-100 0 -165.5 61.5t-65.5 149.5zM276 913q0 -57 34 -93t83 -36q53 0 86 33v240l-117 -39q-47 -16 -66.5 -39t-19.5 -66z" />
<glyph unicode="&#xab;" horiz-adv-x="1230" d="M133 510v14l453 441l76 -58l-283 -391l283 -391l-76 -57zM579 510v14l453 441l76 -58l-283 -391l283 -391l-76 -57z" />
<glyph unicode="&#xad;" horiz-adv-x="788" d="M92 492v227h604v-227h-604z" />
<glyph unicode="&#xae;" horiz-adv-x="946" d="M29 1026q0 119 60.5 218t161.5 158.5t222 59.5t222.5 -59.5t162 -158.5t60.5 -218t-59.5 -219t-162 -159.5t-223.5 -59.5t-223.5 59.5t-161.5 159.5t-59 219zM117 1026q0 -96 47 -178t129 -130t180 -48t180 48t129 130t47 178t-48 178t-129 130t-179 48t-179 -48 t-129 -130t-48 -178zM272 801v35l11 2q14 4 21 12t7 27v315q0 18 -7 25.5t-21 11.5l-11 2v37h220q70 0 120 -34t50 -99q0 -94 -101 -125l68 -101q28 -41 39.5 -54t25.5 -17l8 -2v-35h-114q-14 20 -27 41l-35 51l-43 63q-14 23 -24 31t-29 8h-16v-118q0 -18 7 -26.5t21 -12.5 l13 -2v-35h-183zM414 1051h57q43 0 64.5 19.5t21.5 55.5q0 78 -94 78h-49v-153z" />
<glyph unicode="&#xaf;" horiz-adv-x="1228" d="M288 1241v174h656v-174h-656z" />
<glyph unicode="&#xb0;" horiz-adv-x="655" d="M57 1260q0 109 79 183.5t192 74.5t191.5 -75t78.5 -183q0 -111 -79 -185t-191 -74q-113 0 -192 74t-79 185zM176 1260q0 -63 44 -107.5t108 -44.5q65 0 108 44t43 108q0 66 -43 109.5t-108 43.5q-66 0 -109 -44t-43 -109z" />
<glyph unicode="&#xb1;" d="M123 66v168h942v-168h-942zM123 717v168h377v387h188v-387h377v-168h-377v-387h-188v387h-377z" />
<glyph unicode="&#xb4;" horiz-adv-x="1228" d="M398 1149l120 364h316v-28l-332 -336h-104z" />
<glyph unicode="&#xb6;" horiz-adv-x="1368" d="M74 1036q0 127 67.5 217t176 135.5t229.5 45.5h745v-127h-170v-1512h-159v1512h-246v-1512h-162v828h-18q-127 0 -232.5 46t-168 139t-62.5 228z" />
<glyph unicode="&#xb7;" horiz-adv-x="569" d="M92 578q0 78 56.5 133t134.5 55q80 0 137 -55t57 -133t-57.5 -133t-136.5 -55q-78 0 -134.5 55t-56.5 133z" />
<glyph unicode="&#xb8;" horiz-adv-x="1228" d="M406 -395l35 57q25 -16 60.5 -26.5t70.5 -10.5q88 0 88 72q0 45 -49 69.5t-125 32.5l84 209h102l-37 -94q84 -18 137.5 -64.5t53.5 -123.5q0 -86 -60.5 -136.5t-162.5 -50.5q-121 0 -197 66z" />
<glyph unicode="&#xba;" horiz-adv-x="890" d="M27 1057q0 117 57 210t153.5 146t208.5 53q113 0 209.5 -51t152.5 -143t56 -209t-56 -210t-152.5 -145.5t-209.5 -52.5q-112 0 -208.5 51.5t-153.5 142.5t-57 208zM291 1085q0 -141 44 -244.5t122 -103.5q69 0 107 82t38 215q0 147 -45 247.5t-119 100.5 q-72 0 -109.5 -81.5t-37.5 -215.5z" />
<glyph unicode="&#xbb;" horiz-adv-x="1230" d="M123 125l283 391l-283 391l78 58l450 -441v-14l-450 -442zM569 125l283 391l-283 391l78 58l450 -441v-14l-450 -442z" />
<glyph unicode="&#xbc;" horiz-adv-x="1638" d="M80 645v66l26 2q53 4 86 17t33 48v436q0 29 -10 40.5t-37 11.5h-98v63q152 49 248 113h114v-664q0 -35 34 -48t89 -17l27 -2v-66h-512zM263 0l952 1434h174l-952 -1434h-174zM938 160v139l350 490h184v-486h101l-31 -143h-70v-160h-207v160h-327zM1042 303h223v309z" />
<glyph unicode="&#xbd;" horiz-adv-x="1699" d="M80 645v66l26 2q53 4 86 17t33 48v436q0 29 -10 40.5t-37 11.5h-98v63q152 49 248 113h114v-664q0 -35 34 -48t89 -17l27 -2v-66h-512zM263 0l952 1434h174l-952 -1434h-174zM1030 594q29 76 101.5 144.5t199.5 68.5t195.5 -63.5t68.5 -161.5t-90 -200.5t-244 -213.5h125 q86 0 120 18.5t61 71.5h57l-31 -258h-557v51l119 138l41 47q104 123 141 181t37 126q0 53 -33 84t-88 31t-93 -27t-71 -74z" />
<glyph unicode="&#xbe;" horiz-adv-x="1673" d="M45 752q16 37 48 59.5t75 22.5q31 0 51.5 -12.5t38.5 -45.5q27 -41 47.5 -57.5t48.5 -16.5q33 0 58.5 30t25.5 81q0 80 -69.5 127t-157.5 57v76q59 12 113.5 49t54.5 95q0 41 -28.5 66.5t-86.5 25.5q-82 0 -141 -74l-57 43q33 72 100 123t180 51q115 0 176.5 -49 t61.5 -123q0 -66 -39 -110t-99 -66q80 -33 126 -90.5t46 -132.5q0 -111 -82.5 -182.5t-211.5 -71.5q-111 0 -180.5 34.5t-98.5 90.5zM297 0l952 1434h174l-952 -1434h-174zM973 160v139l350 490h184v-486h101l-31 -143h-70v-160h-207v160h-327zM1077 303h223v309z" />
<glyph unicode="&#xbf;" horiz-adv-x="845" d="M29 -92q0 80 31.5 144.5t83 118.5t139.5 132q88 76 123.5 122t48.5 101l6 31h108l9 -29q27 -102 26 -157q0 -63 -25.5 -115.5t-82.5 -122.5l-33 -39q-68 -82 -96.5 -131t-28.5 -115q0 -78 32.5 -125t88.5 -47q43 0 63.5 30t32.5 64.5t16 47.5q25 61 54.5 85.5t83.5 24.5 q59 0 112 -26.5t82 -69.5q-31 -109 -143.5 -190.5t-300.5 -81.5q-131 0 -229.5 47t-149.5 126t-51 175zM301 858q0 76 57.5 132.5t135.5 56.5q79 0 134.5 -55.5t55.5 -133.5t-55.5 -134t-134.5 -56q-78 0 -135.5 56t-57.5 134z" />
<glyph unicode="&#xc0;" horiz-adv-x="1538" d="M12 0v92l21 4q53 10 94 53.5t76 124.5l473 1160h196l478 -1178q33 -82 69.5 -116t85.5 -44l21 -4v-92h-676v92l31 4q63 8 95 28.5t32 59.5q0 29 -15 64l-61 153h-518l-60 -153q-14 -37 -14 -66q0 -39 28.5 -58.5t88.5 -27.5l30 -4v-92h-475zM433 1806v29h317l119 -287 h-105zM461 522h424l-215 539z" />
<glyph unicode="&#xc1;" horiz-adv-x="1538" d="M12 0v92l21 4q53 10 94 53.5t76 124.5l473 1160h196l478 -1178q33 -82 69.5 -116t85.5 -44l21 -4v-92h-676v92l31 4q63 8 95 28.5t32 59.5q0 29 -15 64l-61 153h-518l-60 -153q-14 -37 -14 -66q0 -39 28.5 -58.5t88.5 -27.5l30 -4v-92h-475zM461 522h424l-215 539z M689 1548l120 287h316v-29l-332 -258h-104z" />
<glyph unicode="&#xc2;" horiz-adv-x="1538" d="M12 0v92l21 4q53 10 94 53.5t76 124.5l473 1160h196l478 -1178q33 -82 69.5 -116t85.5 -44l21 -4v-92h-676v92l31 4q63 8 95 28.5t32 59.5q0 29 -15 64l-61 153h-518l-60 -153q-14 -37 -14 -66q0 -39 28.5 -58.5t88.5 -27.5l30 -4v-92h-475zM412 1548l217 287h293 l219 -287h-127l-236 148l-237 -148h-129zM461 522h424l-215 539z" />
<glyph unicode="&#xc3;" horiz-adv-x="1538" d="M12 0v92l21 4q53 10 94 53.5t76 124.5l473 1160h196l478 -1178q33 -82 69.5 -116t85.5 -44l21 -4v-92h-676v92l31 4q63 8 95 28.5t32 59.5q0 29 -15 64l-61 153h-518l-60 -153q-14 -37 -14 -66q0 -39 28.5 -58.5t88.5 -27.5l30 -4v-92h-475zM412 1546q29 145 83 206 t132 61q47 0 89 -13.5t97 -37.5q47 -23 78 -33.5t61 -10.5q45 0 73 26t40 69l82 -11q-29 -145 -83 -205.5t-134 -60.5q-45 0 -85 13.5t-98 37.5q-47 20 -78.5 31.5t-62.5 11.5q-45 0 -74.5 -26.5t-42.5 -67.5zM461 522h424l-215 539z" />
<glyph unicode="&#xc4;" horiz-adv-x="1538" d="M12 0v92l21 4q53 10 94 53.5t76 124.5l473 1160h196l478 -1178q33 -82 69.5 -116t85.5 -44l21 -4v-92h-676v92l31 4q63 8 95 28.5t32 59.5q0 29 -15 64l-61 153h-518l-60 -153q-14 -37 -14 -66q0 -39 28.5 -58.5t88.5 -27.5l30 -4v-92h-475zM383 1692q0 63 47.5 108 t114.5 45q66 0 113 -45t47 -108t-47 -109.5t-113 -46.5q-67 0 -114.5 46t-47.5 110zM461 522h424l-215 539zM848 1692q0 63 47.5 108t112.5 45q68 0 115 -45t47 -108t-47 -109.5t-115 -46.5q-65 0 -112.5 46t-47.5 110z" />
<glyph unicode="&#xc5;" horiz-adv-x="1538" d="M12 0v92l21 4q53 10 94 53.5t76 124.5l473 1160h196l478 -1178q33 -82 69.5 -116t85.5 -44l21 -4v-92h-676v92l31 4q63 8 95 28.5t32 59.5q0 29 -15 64l-61 153h-518l-60 -153q-14 -37 -14 -66q0 -39 28.5 -58.5t88.5 -27.5l30 -4v-92h-475zM461 522h424l-215 539z M537 1716q0 92 69.5 159t169.5 67t170 -67t70 -159q0 -94 -69.5 -159.5t-170.5 -65.5q-100 0 -169.5 65.5t-69.5 159.5zM655 1716q0 -51 34 -86t87 -35q51 0 86 35t35 86t-35 86t-86 35t-86 -34.5t-35 -86.5z" />
<glyph unicode="&#xc6;" horiz-adv-x="2021" d="M0 0v92l20 4q59 12 101.5 45t85.5 119l436 879q33 66 33 106q0 74 -111 90l-37 6v93h1350v-373h-104q-29 96 -64 147.5t-93 75t-163 23.5h-219v-504h129q92 0 138 35.5t69 124.5h94v-467h-94q-25 94 -71 137t-136 43h-129v-445q0 -59 35 -81.5t112 -22.5h86 q121 0 188.5 25.5t110.5 89t84 192.5h105l-31 -434h-1188v92l31 4q61 8 94 33t33 82v199h-438l-84 -172q-18 -37 -19 -64q0 -63 101 -78l30 -4v-92h-485zM518 537h377v778z" />
<glyph unicode="&#xc7;" horiz-adv-x="1421" d="M74 713q0 219 98 391t267 267t378 95q119 0 241 -23.5t230 -74.5v-383h-106q-53 186 -145.5 272t-223.5 86q-172 0 -269.5 -157.5t-97.5 -421.5q0 -168 52.5 -306.5t153 -219t239.5 -80.5q123 0 216 60.5t171 189.5l94 -52q-82 -195 -227.5 -292t-343.5 -97q-31 0 -47 2 l-21 -55q84 -18 137.5 -64.5t53.5 -123.5q0 -86 -60.5 -136.5t-163.5 -50.5q-121 0 -196 66l35 57q25 -16 60.5 -26.5t70.5 -10.5q90 0 90 72q0 43 -49 68.5t-127 33.5l71 181q-168 31 -300 130t-206.5 254.5t-74.5 348.5z" />
<glyph unicode="&#xc8;" horiz-adv-x="1359" d="M74 0v92l30 4q61 8 94 33t33 82v1012q0 57 -32.5 81.5t-94.5 32.5l-30 4v93h1140v-373h-102q-29 96 -63.5 147.5t-94 75t-163.5 23.5h-220v-504h131q92 0 138.5 35.5t68.5 124.5h92v-467h-92q-25 94 -70.5 137t-136.5 43h-131v-445q0 -59 35 -81.5t113 -22.5h90 q121 0 188.5 25.5t110.5 89t84 192.5h102l-30 -434h-1190zM351 1806v29h317l119 -287h-105z" />
<glyph unicode="&#xc9;" horiz-adv-x="1359" d="M74 0v92l30 4q61 8 94 33t33 82v1012q0 57 -32.5 81.5t-94.5 32.5l-30 4v93h1140v-373h-102q-29 96 -63.5 147.5t-94 75t-163.5 23.5h-220v-504h131q92 0 138.5 35.5t68.5 124.5h92v-467h-92q-25 94 -70.5 137t-136.5 43h-131v-445q0 -59 35 -81.5t113 -22.5h90 q121 0 188.5 25.5t110.5 89t84 192.5h102l-30 -434h-1190zM607 1548l120 287h316v-29l-332 -258h-104z" />
<glyph unicode="&#xca;" horiz-adv-x="1359" d="M74 0v92l30 4q61 8 94 33t33 82v1012q0 57 -32.5 81.5t-94.5 32.5l-30 4v93h1140v-373h-102q-29 96 -63.5 147.5t-94 75t-163.5 23.5h-220v-504h131q92 0 138.5 35.5t68.5 124.5h92v-467h-92q-25 94 -70.5 137t-136.5 43h-131v-445q0 -59 35 -81.5t113 -22.5h90 q121 0 188.5 25.5t110.5 89t84 192.5h102l-30 -434h-1190zM332 1548l217 287h293l219 -287h-127l-236 148l-237 -148h-129z" />
<glyph unicode="&#xcb;" horiz-adv-x="1359" d="M74 0v92l30 4q61 8 94 33t33 82v1012q0 57 -32.5 81.5t-94.5 32.5l-30 4v93h1140v-373h-102q-29 96 -63.5 147.5t-94 75t-163.5 23.5h-220v-504h131q92 0 138.5 35.5t68.5 124.5h92v-467h-92q-25 94 -70.5 137t-136.5 43h-131v-445q0 -59 35 -81.5t113 -22.5h90 q121 0 188.5 25.5t110.5 89t84 192.5h102l-30 -434h-1190zM303 1692q0 63 47.5 108t114.5 45q66 0 113 -45t47 -108t-47 -109.5t-113 -46.5q-67 0 -114.5 46t-47.5 110zM768 1692q0 63 47.5 108t112.5 45q68 0 115 -45t47 -108t-47 -109.5t-115 -46.5q-65 0 -112.5 46 t-47.5 110z" />
<glyph unicode="&#xcc;" horiz-adv-x="821" d="M66 1806v29h317l119 -287h-105zM82 0v92l31 4q63 8 96 33t33 82v1012q0 57 -33 81.5t-96 32.5l-31 4v93h657v-93l-32 -4q-61 -8 -94 -32.5t-33 -81.5v-1012q0 -57 32.5 -82t94.5 -33l32 -4v-92h-657z" />
<glyph unicode="&#xcd;" horiz-adv-x="821" d="M82 0v92l31 4q63 8 96 33t33 82v1012q0 57 -33 81.5t-96 32.5l-31 4v93h657v-93l-32 -4q-61 -8 -94 -32.5t-33 -81.5v-1012q0 -57 32.5 -82t94.5 -33l32 -4v-92h-657zM322 1548l120 287h316v-29l-332 -258h-104z" />
<glyph unicode="&#xce;" horiz-adv-x="821" d="M45 1548l217 287h293l219 -287h-127l-236 148l-237 -148h-129zM82 0v92l31 4q63 8 96 33t33 82v1012q0 57 -33 81.5t-96 32.5l-31 4v93h657v-93l-32 -4q-61 -8 -94 -32.5t-33 -81.5v-1012q0 -57 32.5 -82t94.5 -33l32 -4v-92h-657z" />
<glyph unicode="&#xcf;" horiz-adv-x="821" d="M16 1692q0 63 47.5 108t114.5 45q66 0 113 -45t47 -108t-47 -109.5t-113 -46.5q-67 0 -114.5 46t-47.5 110zM82 0v92l31 4q63 8 96 33t33 82v1012q0 57 -33 81.5t-96 32.5l-31 4v93h657v-93l-32 -4q-61 -8 -94 -32.5t-33 -81.5v-1012q0 -57 32.5 -82t94.5 -33l32 -4v-92 h-657zM481 1692q0 63 47.5 108t112.5 45q68 0 115 -45t47 -108t-47 -109.5t-115 -46.5q-65 0 -112.5 46t-47.5 110z" />
<glyph unicode="&#xd0;" horiz-adv-x="1597" d="M74 0v92l30 4q61 8 94 33t33 82v467h-151v123h151v422q0 57 -32.5 81.5t-94.5 32.5l-30 4v93h723q213 0 377.5 -86t257 -248t92.5 -379q0 -219 -92.5 -382t-257 -251t-377.5 -88h-723zM571 231q0 -61 33 -82.5t109 -21.5h57q176 0 278.5 146.5t102.5 402.5 q0 285 -106.5 458t-311.5 173h-162v-506h318v-123h-318v-447z" />
<glyph unicode="&#xd1;" horiz-adv-x="1574" d="M66 0v92l26 4q68 10 100.5 43t32.5 113v971q0 57 -32.5 81.5t-96.5 32.5l-30 4v93h430l708 -873v621q0 80 -31.5 112.5t-99.5 42.5l-26 4v93h477v-93l-27 -4q-68 -10 -99.5 -42.5t-31.5 -112.5v-1184h-131l-850 1044v-790q0 -80 32 -113t99 -43l27 -4v-92h-477zM449 1546 q29 145 83 206t132 61q47 0 89 -13.5t97 -37.5q47 -23 78 -33.5t61 -10.5q45 0 73 26t40 69l82 -11q-29 -145 -83 -205.5t-134 -60.5q-45 0 -85 13.5t-98 37.5q-47 20 -78.5 31.5t-62.5 11.5q-45 0 -74.5 -26.5t-42.5 -67.5z" />
<glyph unicode="&#xd2;" horiz-adv-x="1630" d="M74 713q0 219 99 391t269 267t375 95q203 0 372 -94t268 -264t99 -387q0 -219 -99 -391t-268 -267.5t-372 -95.5q-205 0 -375 94.5t-269 264.5t-99 387zM446 758q0 -184 47.5 -337t134.5 -242t203 -89q103 0 183 75t125 208t45 303q0 184 -46 336.5t-132 241.5t-203 89 q-102 0 -183 -73.5t-127.5 -206.5t-46.5 -305zM471 1806v29h317l119 -287h-105z" />
<glyph unicode="&#xd3;" horiz-adv-x="1630" d="M74 713q0 219 99 391t269 267t375 95q203 0 372 -94t268 -264t99 -387q0 -219 -99 -391t-268 -267.5t-372 -95.5q-205 0 -375 94.5t-269 264.5t-99 387zM446 758q0 -184 47.5 -337t134.5 -242t203 -89q103 0 183 75t125 208t45 303q0 184 -46 336.5t-132 241.5t-203 89 q-102 0 -183 -73.5t-127.5 -206.5t-46.5 -305zM727 1548l120 287h316v-29l-332 -258h-104z" />
<glyph unicode="&#xd4;" horiz-adv-x="1630" d="M74 713q0 219 99 391t269 267t375 95q203 0 372 -94t268 -264t99 -387q0 -219 -99 -391t-268 -267.5t-372 -95.5q-205 0 -375 94.5t-269 264.5t-99 387zM446 758q0 -184 47.5 -337t134.5 -242t203 -89q103 0 183 75t125 208t45 303q0 184 -46 336.5t-132 241.5t-203 89 q-102 0 -183 -73.5t-127.5 -206.5t-46.5 -305zM451 1548l217 287h293l219 -287h-127l-236 148l-237 -148h-129z" />
<glyph unicode="&#xd5;" horiz-adv-x="1630" d="M74 713q0 219 99 391t269 267t375 95q203 0 372 -94t268 -264t99 -387q0 -219 -99 -391t-268 -267.5t-372 -95.5q-205 0 -375 94.5t-269 264.5t-99 387zM446 758q0 -184 47.5 -337t134.5 -242t203 -89q103 0 183 75t125 208t45 303q0 184 -46 336.5t-132 241.5t-203 89 q-102 0 -183 -73.5t-127.5 -206.5t-46.5 -305zM451 1546q29 145 83 206t132 61q47 0 89 -13.5t97 -37.5q47 -23 78 -33.5t61 -10.5q45 0 73 26t40 69l82 -11q-29 -145 -83 -205.5t-134 -60.5q-45 0 -85 13.5t-98 37.5q-47 20 -78.5 31.5t-62.5 11.5q-45 0 -74.5 -26.5 t-42.5 -67.5z" />
<glyph unicode="&#xd6;" horiz-adv-x="1630" d="M74 713q0 219 99 391t269 267t375 95q203 0 372 -94t268 -264t99 -387q0 -219 -99 -391t-268 -267.5t-372 -95.5q-205 0 -375 94.5t-269 264.5t-99 387zM421 1692q0 63 47.5 108t114.5 45q66 0 113 -45t47 -108t-47 -109.5t-113 -46.5q-67 0 -114.5 46t-47.5 110z M446 758q0 -184 47.5 -337t134.5 -242t203 -89q103 0 183 75t125 208t45 303q0 184 -46 336.5t-132 241.5t-203 89q-102 0 -183 -73.5t-127.5 -206.5t-46.5 -305zM886 1692q0 63 47.5 108t112.5 45q68 0 115 -45t47 -108t-47 -109.5t-115 -46.5q-65 0 -112.5 46t-47.5 110z " />
<glyph unicode="&#xd7;" d="M139 328l332 331l-332 332l123 121l332 -330l330 330l123 -123l-330 -332l330 -327l-125 -125l-328 330l-330 -332z" />
<glyph unicode="&#xd8;" horiz-adv-x="1630" d="M74 713q0 219 99 391t269 267t375 95t375 -96l106 152l107 -74l-105 -152q121 -100 188.5 -248.5t67.5 -326.5q0 -219 -99 -391t-268 -267.5t-372 -95.5q-209 0 -377 96l-106 -153l-107 76l105 151q-121 100 -189.5 247.5t-68.5 328.5zM446 758q1 -211 60 -373l557 799 q-106 160 -260 159q-102 0 -183 -73.5t-127.5 -206.5t-46.5 -305zM571 250q106 -160 260 -160q103 0 183 75t125 208t45 303q0 207 -58 373z" />
<glyph unicode="&#xd9;" horiz-adv-x="1536" d="M51 1341v93h668v-93l-31 -4q-68 -8 -103.5 -34.5t-35.5 -88.5v-714q0 -172 85 -257t232 -85q139 0 219 80.5t80 236.5v707q0 80 -31.5 112.5t-99.5 42.5l-26 4v93h477v-93l-27 -4q-68 -10 -99.5 -42.5t-31.5 -112.5v-711q0 -231 -138 -367.5t-394 -136.5 q-289 0 -436.5 138.5t-147.5 386.5v722q0 61 -33 88t-96 35zM516 1806v29h317l119 -287h-105z" />
<glyph unicode="&#xda;" horiz-adv-x="1536" d="M51 1341v93h668v-93l-31 -4q-68 -8 -103.5 -34.5t-35.5 -88.5v-714q0 -172 85 -257t232 -85q139 0 219 80.5t80 236.5v707q0 80 -31.5 112.5t-99.5 42.5l-26 4v93h477v-93l-27 -4q-68 -10 -99.5 -42.5t-31.5 -112.5v-711q0 -231 -138 -367.5t-394 -136.5 q-289 0 -436.5 138.5t-147.5 386.5v722q0 61 -33 88t-96 35zM772 1548l120 287h316v-29l-332 -258h-104z" />
<glyph unicode="&#xdb;" horiz-adv-x="1536" d="M51 1341v93h668v-93l-31 -4q-68 -8 -103.5 -34.5t-35.5 -88.5v-714q0 -172 85 -257t232 -85q139 0 219 80.5t80 236.5v707q0 80 -31.5 112.5t-99.5 42.5l-26 4v93h477v-93l-27 -4q-68 -10 -99.5 -42.5t-31.5 -112.5v-711q0 -231 -138 -367.5t-394 -136.5 q-289 0 -436.5 138.5t-147.5 386.5v722q0 61 -33 88t-96 35zM496 1548l217 287h293l219 -287h-127l-236 148l-237 -148h-129z" />
<glyph unicode="&#xdc;" horiz-adv-x="1536" d="M51 1341v93h668v-93l-31 -4q-68 -8 -103.5 -34.5t-35.5 -88.5v-714q0 -172 85 -257t232 -85q139 0 219 80.5t80 236.5v707q0 80 -31.5 112.5t-99.5 42.5l-26 4v93h477v-93l-27 -4q-68 -10 -99.5 -42.5t-31.5 -112.5v-711q0 -231 -138 -367.5t-394 -136.5 q-289 0 -436.5 138.5t-147.5 386.5v722q0 61 -33 88t-96 35zM467 1692q0 63 47.5 108t114.5 45q66 0 113 -45t47 -108t-47 -109.5t-113 -46.5q-67 0 -114.5 46t-47.5 110zM932 1692q0 63 47.5 108t112.5 45q68 0 115 -45t47 -108t-47 -109.5t-115 -46.5q-65 0 -112.5 46 t-47.5 110z" />
<glyph unicode="&#xdd;" horiz-adv-x="1437" d="M20 1341v93h699v-93l-39 -4q-57 -6 -87 -23.5t-30 -49.5q0 -29 25 -72l235 -399l219 391q25 43 25 71q0 68 -121 82l-31 4v93h502v-93l-22 -4q-63 -12 -110.5 -51t-102.5 -137l-281 -485v-453q0 -57 33 -82t94 -33l31 -4v-92h-656v92l31 4q61 8 94 33t33 82v401l-346 576 q-49 82 -83 110.5t-91 38.5zM664 1548l120 287h316v-29l-332 -258h-104z" />
<glyph unicode="&#xde;" horiz-adv-x="1366" d="M74 0v92l30 4q61 8 94 33t33 82v1012q0 57 -32.5 81.5t-94.5 32.5l-30 4v93h657v-93l-33 -4q-61 -8 -94 -32.5t-33 -81.5v-72h226q145 0 266 -46t193.5 -140.5t72.5 -227.5q0 -209 -147.5 -318.5t-374.5 -109.5h-236v-98q0 -57 33 -82t94 -33l33 -4v-92h-657zM571 436 h150q133 0 195.5 71t62.5 216q0 154 -78 227.5t-192 73.5h-138v-588z" />
<glyph unicode="&#xdf;" horiz-adv-x="1368" d="M33 881v102l145 45v62q0 141 70.5 237t188.5 144.5t259 48.5q221 0 345 -79t124 -206q0 -80 -44 -131t-144 -113q-68 -41 -95.5 -63.5t-27.5 -40.5t24.5 -41t110.5 -80l74 -53q150 -100 210 -175t60 -186t-59.5 -197.5t-155.5 -135t-203 -48.5q-120 0 -217.5 44 t-140.5 120q14 49 56 85t94 36q51 0 78.5 -22.5t56.5 -69.5q27 -41 50 -62.5t64 -21.5q47 0 80 42t33 105q0 68 -41 116t-139 120l-101 69q-92 66 -127.5 109t-35.5 92q0 45 24.5 87t71.5 100q61 80 94 140t33 140q0 90 -44 145.5t-118 55.5q-84 0 -134 -66.5t-50 -210.5 v-1124h-451v88l29 4q55 8 76.5 31.5t21.5 83.5v674h-145z" />
<glyph unicode="&#xe0;" horiz-adv-x="1130" d="M63 256q0 106 67 166.5t204 99.5l315 90v142q0 102 -37 150t-90 48q-47 0 -67.5 -31.5t-46.5 -117.5q-18 -61 -50 -85t-88 -24q-63 0 -113.5 32t-68.5 67q18 61 70.5 120.5t148.5 99.5t234 40q223 0 325.5 -91.5t102.5 -236.5v-504q0 -49 22.5 -70.5t67.5 -21.5 q20 0 45 8v-63q-43 -49 -110.5 -73t-139.5 -24q-90 0 -137 38t-62 96q-47 -63 -119.5 -99.5t-162.5 -36.5t-160 38t-110 101.5t-40 141.5zM199 1485v28h317l119 -364h-105zM379 317q0 -78 44 -126t109 -48q70 0 117 47v318l-155 -51q-63 -20 -89 -51t-26 -89z" />
<glyph unicode="&#xe1;" horiz-adv-x="1130" d="M63 256q0 106 67 166.5t204 99.5l315 90v142q0 102 -37 150t-90 48q-47 0 -67.5 -31.5t-46.5 -117.5q-18 -61 -50 -85t-88 -24q-63 0 -113.5 32t-68.5 67q18 61 70.5 120.5t148.5 99.5t234 40q223 0 325.5 -91.5t102.5 -236.5v-504q0 -49 22.5 -70.5t67.5 -21.5 q20 0 45 8v-63q-43 -49 -110.5 -73t-139.5 -24q-90 0 -137 38t-62 96q-47 -63 -119.5 -99.5t-162.5 -36.5t-160 38t-110 101.5t-40 141.5zM379 317q0 -78 44 -126t109 -48q70 0 117 47v318l-155 -51q-63 -20 -89 -51t-26 -89zM461 1149l120 364h316v-28l-332 -336h-104z" />
<glyph unicode="&#xe2;" horiz-adv-x="1130" d="M63 256q0 106 67 166.5t204 99.5l315 90v142q0 102 -37 150t-90 48q-47 0 -67.5 -31.5t-46.5 -117.5q-18 -61 -50 -85t-88 -24q-63 0 -113.5 32t-68.5 67q18 61 70.5 120.5t148.5 99.5t234 40q223 0 325.5 -91.5t102.5 -236.5v-504q0 -49 22.5 -70.5t67.5 -21.5 q20 0 45 8v-63q-43 -49 -110.5 -73t-139.5 -24q-90 0 -137 38t-62 96q-47 -63 -119.5 -99.5t-162.5 -36.5t-160 38t-110 101.5t-40 141.5zM184 1149l213 364h299l213 -364h-111l-250 219l-254 -219h-110zM379 317q0 -78 44 -126t109 -48q70 0 117 47v318l-155 -51 q-63 -20 -89 -51t-26 -89z" />
<glyph unicode="&#xe3;" horiz-adv-x="1130" d="M63 256q0 106 67 166.5t204 99.5l315 90v142q0 102 -37 150t-90 48q-47 0 -67.5 -31.5t-46.5 -117.5q-18 -61 -50 -85t-88 -24q-63 0 -113.5 32t-68.5 67q18 61 70.5 120.5t148.5 99.5t234 40q223 0 325.5 -91.5t102.5 -236.5v-504q0 -49 22.5 -70.5t67.5 -21.5 q20 0 45 8v-63q-43 -49 -110.5 -73t-139.5 -24q-90 0 -137 38t-62 96q-47 -63 -119.5 -99.5t-162.5 -36.5t-160 38t-110 101.5t-40 141.5zM179 1214q29 145 83 206t132 61q47 0 89 -13.5t97 -37.5q47 -23 78 -33.5t61 -10.5q45 0 73 26t40 69l82 -11q-29 -145 -83 -205.5 t-134 -60.5q-45 0 -85 13.5t-98 37.5q-47 20 -78.5 31.5t-62.5 11.5q-45 0 -74.5 -26.5t-42.5 -67.5zM379 317q0 -78 44 -126t109 -48q70 0 117 47v318l-155 -51q-63 -20 -89 -51t-26 -89z" />
<glyph unicode="&#xe4;" horiz-adv-x="1130" d="M63 256q0 106 67 166.5t204 99.5l315 90v142q0 102 -37 150t-90 48q-47 0 -67.5 -31.5t-46.5 -117.5q-18 -61 -50 -85t-88 -24q-63 0 -113.5 32t-68.5 67q18 61 70.5 120.5t148.5 99.5t234 40q223 0 325.5 -91.5t102.5 -236.5v-504q0 -49 22.5 -70.5t67.5 -21.5 q20 0 45 8v-63q-43 -49 -110.5 -73t-139.5 -24q-90 0 -137 38t-62 96q-47 -63 -119.5 -99.5t-162.5 -36.5t-160 38t-110 101.5t-40 141.5zM168 1339q0 63 47 108.5t115 45.5q66 0 113 -45t47 -109q0 -63 -47.5 -108t-112.5 -45q-68 0 -115 45t-47 108zM379 317 q0 -78 44 -126t109 -48q70 0 117 47v318l-155 -51q-63 -20 -89 -51t-26 -89zM604 1339q0 63 47.5 108.5t112.5 45.5q68 0 115 -45t47 -109q0 -63 -47 -108t-115 -45q-65 0 -112.5 45t-47.5 108z" />
<glyph unicode="&#xe5;" horiz-adv-x="1130" d="M63 256q0 106 67 166.5t204 99.5l315 90v142q0 102 -37 150t-90 48q-47 0 -67.5 -31.5t-46.5 -117.5q-18 -61 -50 -85t-88 -24q-63 0 -113.5 32t-68.5 67q18 61 70.5 120.5t148.5 99.5t234 40q223 0 325.5 -91.5t102.5 -236.5v-504q0 -49 22.5 -70.5t67.5 -21.5 q20 0 45 8v-63q-43 -49 -110.5 -73t-139.5 -24q-90 0 -137 38t-62 96q-47 -63 -119.5 -99.5t-162.5 -36.5t-160 38t-110 101.5t-40 141.5zM308 1378q0 92 69.5 159t169.5 67t170 -67t70 -159q0 -94 -69.5 -159.5t-170.5 -65.5q-100 0 -169.5 65.5t-69.5 159.5zM379 317 q0 -78 44 -126t109 -48q70 0 117 47v318l-155 -51q-63 -20 -89 -51t-26 -89zM426 1378q0 -51 34 -86t87 -35q51 0 86 35t35 86t-35 86t-86 35t-86 -34.5t-35 -86.5z" />
<glyph unicode="&#xe6;" horiz-adv-x="1665" d="M63 258q0 106 67 166.5t204 97.5l319 90v140q0 195 -125 194q-53 0 -73.5 -29.5t-46.5 -113.5q-18 -61 -49 -85t-87 -24q-70 0 -118 32t-66 67q14 59 66.5 118.5t149.5 100.5t239 41q227 0 329 -103q66 49 139.5 76t147.5 27q141 0 241.5 -60.5t152 -159t51.5 -210.5 q0 -47 -2 -64h-646q8 -180 97.5 -264t222.5 -84q88 0 151.5 38t120.5 118l68 -35q-61 -180 -182 -270.5t-285 -90.5q-127 0 -229.5 49.5t-169.5 139.5q-66 -84 -150 -134.5t-205 -50.5q-96 0 -172 38t-118 102.5t-42 142.5zM379 315q0 -74 45 -121t117 -47q98 0 170 78 q-57 115 -58 260v25l-159 -53q-63 -20 -89 -51t-26 -91zM958 668h347q-8 127 -50.5 201.5t-115.5 74.5q-76 0 -123 -71.5t-58 -204.5z" />
<glyph unicode="&#xe7;" horiz-adv-x="1030" d="M57 487q0 160 72 289t193.5 203t265.5 74q129 0 217 -39t134 -92.5t58 -102.5q-27 -57 -76 -89t-104 -32q-51 0 -81.5 23.5t-53.5 79.5q-35 80 -59.5 110.5t-75.5 30.5q-76 0 -128 -82t-52 -254q0 -188 88 -291.5t223 -103.5q86 0 149.5 41t120.5 123l66 -35 q-117 -367 -453 -367h-6l-23 -59q84 -18 136.5 -64.5t52.5 -123.5q0 -86 -59.5 -136.5t-161.5 -50.5q-121 0 -197 66l35 57q25 -16 60.5 -26.5t70.5 -10.5q88 0 88 72q0 45 -49 69.5t-125 32.5l74 183q-186 33 -293 171t-107 334z" />
<glyph unicode="&#xe8;" horiz-adv-x="1071" d="M57 485q0 166 70 296t186.5 201t251.5 71q141 0 241.5 -60.5t152 -159t51.5 -210.5q0 -47 -2 -64h-648q8 -180 98.5 -264t223.5 -84q88 0 151.5 38t120.5 118l68 -35q-61 -180 -182 -270.5t-285 -90.5q-145 0 -258 63.5t-176.5 180.5t-63.5 270zM228 1485v28h317 l119 -364h-105zM362 668h347q-8 127 -50.5 201.5t-113.5 74.5q-76 0 -124 -71.5t-59 -204.5z" />
<glyph unicode="&#xe9;" horiz-adv-x="1071" d="M57 485q0 166 70 296t186.5 201t251.5 71q141 0 241.5 -60.5t152 -159t51.5 -210.5q0 -47 -2 -64h-648q8 -180 98.5 -264t223.5 -84q88 0 151.5 38t120.5 118l68 -35q-61 -180 -182 -270.5t-285 -90.5q-145 0 -258 63.5t-176.5 180.5t-63.5 270zM362 668h347 q-8 127 -50.5 201.5t-113.5 74.5q-76 0 -124 -71.5t-59 -204.5zM490 1149l120 364h316v-28l-332 -336h-104z" />
<glyph unicode="&#xea;" horiz-adv-x="1071" d="M57 485q0 166 70 296t186.5 201t251.5 71q141 0 241.5 -60.5t152 -159t51.5 -210.5q0 -47 -2 -64h-648q8 -180 98.5 -264t223.5 -84q88 0 151.5 38t120.5 118l68 -35q-61 -180 -182 -270.5t-285 -90.5q-145 0 -258 63.5t-176.5 180.5t-63.5 270zM213 1149l213 364h299 l213 -364h-111l-250 219l-254 -219h-110zM362 668h347q-8 127 -50.5 201.5t-113.5 74.5q-76 0 -124 -71.5t-59 -204.5z" />
<glyph unicode="&#xeb;" horiz-adv-x="1071" d="M57 485q0 166 70 296t186.5 201t251.5 71q141 0 241.5 -60.5t152 -159t51.5 -210.5q0 -47 -2 -64h-648q8 -180 98.5 -264t223.5 -84q88 0 151.5 38t120.5 118l68 -35q-61 -180 -182 -270.5t-285 -90.5q-145 0 -258 63.5t-176.5 180.5t-63.5 270zM197 1339q0 63 47 108.5 t115 45.5q66 0 113 -45t47 -109q0 -63 -47.5 -108t-112.5 -45q-68 0 -115 45t-47 108zM362 668h347q-8 127 -50.5 201.5t-113.5 74.5q-76 0 -124 -71.5t-59 -204.5zM633 1339q0 63 47.5 108.5t112.5 45.5q68 0 115 -45t47 -109q0 -63 -47 -108t-115 -45q-65 0 -112.5 45 t-47.5 108z" />
<glyph unicode="&#xec;" horiz-adv-x="673" d="M-10 1485v28h317l119 -364h-105zM57 0v88l27 4q55 8 77.5 33t22.5 86v537q0 59 -25.5 83.5t-101.5 45.5v77l432 93h19v-836q0 -61 22.5 -86t77.5 -33l27 -4v-88h-578z" />
<glyph unicode="&#xed;" horiz-adv-x="673" d="M57 0v88l27 4q55 8 77.5 33t22.5 86v537q0 59 -25.5 83.5t-101.5 45.5v77l432 93h19v-836q0 -61 22.5 -86t77.5 -33l27 -4v-88h-578zM252 1149l120 364h316v-28l-332 -336h-104z" />
<glyph unicode="&#xee;" horiz-adv-x="673" d="M-24 1149l213 364h299l213 -364h-111l-250 219l-254 -219h-110zM57 0v88l27 4q55 8 77.5 33t22.5 86v537q0 59 -25.5 83.5t-101.5 45.5v77l432 93h19v-836q0 -61 22.5 -86t77.5 -33l27 -4v-88h-578z" />
<glyph unicode="&#xef;" horiz-adv-x="673" d="M-41 1339q0 63 47 108.5t115 45.5q66 0 113 -45t47 -109q0 -63 -47.5 -108t-112.5 -45q-68 0 -115 45t-47 108zM57 0v88l27 4q55 8 77.5 33t22.5 86v537q0 59 -25.5 83.5t-101.5 45.5v77l432 93h19v-836q0 -61 22.5 -86t77.5 -33l27 -4v-88h-578zM395 1339 q0 63 47.5 108.5t112.5 45.5q68 0 115 -45t47 -109q0 -63 -47 -108t-115 -45q-65 0 -112.5 45t-47.5 108z" />
<glyph unicode="&#xf0;" horiz-adv-x="1236" d="M57 487q0 147 73 268.5t191.5 189t249.5 67.5q53 0 104.5 -18.5t88.5 -53.5q-35 129 -105 240l-288 -107l-35 90l266 99q-100 131 -240 202l41 64q217 -66 388 -197l206 76l35 -90l-158 -57q146 -140 223 -320t77 -385q0 -178 -75 -310t-202 -203t-279 -71t-280.5 65.5 t-204.5 183.5t-76 267zM408 526q0 -178 60 -311t163 -133q94 0 144 104.5t50 272.5q0 123 -27.5 223t-76.5 159.5t-115 59.5q-94 0 -146 -104.5t-52 -270.5z" />
<glyph unicode="&#xf1;" horiz-adv-x="1329" d="M57 0v88l27 4q55 8 77.5 33t22.5 86v534q0 59 -25.5 84t-101.5 48v77l422 93h19v-185q51 76 142 133.5t208 57.5q168 0 243.5 -92.5t75.5 -227.5v-522q0 -61 22.5 -86t78.5 -33l26 -4v-88h-569v88l29 4q49 6 69.5 32t20.5 87v487q0 80 -41 123t-119 43q-51 0 -97 -17.5 t-79 -47.5v-588q0 -61 21.5 -87t70.5 -32l31 -4v-88h-574zM310 1214q29 145 83 206t132 61q47 0 89 -13.5t97 -37.5q47 -23 78 -33.5t61 -10.5q45 0 73 26t40 69l82 -11q-29 -145 -83 -205.5t-134 -60.5q-45 0 -85 13.5t-98 37.5q-47 20 -78.5 31.5t-62.5 11.5 q-45 0 -74.5 -26.5t-42.5 -67.5z" />
<glyph unicode="&#xf2;" horiz-adv-x="1232" d="M57 508q0 156 76 280.5t205 194.5t280 70q150 0 278 -67.5t204 -190.5t76 -279t-76 -280.5t-204 -194.5t-278 -70q-151 0 -280 67.5t-205 190.5t-76 279zM269 1485v28h317l119 -364h-105zM408 547q0 -119 26.5 -226.5t76.5 -173t120 -65.5q94 0 144 109.5t50 285.5 q0 129 -27.5 235.5t-76.5 168t-115 61.5q-94 0 -146 -109.5t-52 -285.5z" />
<glyph unicode="&#xf3;" horiz-adv-x="1232" d="M57 508q0 156 76 280.5t205 194.5t280 70q150 0 278 -67.5t204 -190.5t76 -279t-76 -280.5t-204 -194.5t-278 -70q-151 0 -280 67.5t-205 190.5t-76 279zM408 547q0 -119 26.5 -226.5t76.5 -173t120 -65.5q94 0 144 109.5t50 285.5q0 129 -27.5 235.5t-76.5 168 t-115 61.5q-94 0 -146 -109.5t-52 -285.5zM531 1149l120 364h316v-28l-332 -336h-104z" />
<glyph unicode="&#xf4;" horiz-adv-x="1232" d="M57 508q0 156 76 280.5t205 194.5t280 70q150 0 278 -67.5t204 -190.5t76 -279t-76 -280.5t-204 -194.5t-278 -70q-151 0 -280 67.5t-205 190.5t-76 279zM254 1149l213 364h299l213 -364h-111l-250 219l-254 -219h-110zM408 547q0 -119 26.5 -226.5t76.5 -173t120 -65.5 q94 0 144 109.5t50 285.5q0 129 -27.5 235.5t-76.5 168t-115 61.5q-94 0 -146 -109.5t-52 -285.5z" />
<glyph unicode="&#xf5;" horiz-adv-x="1232" d="M57 508q0 156 76 280.5t205 194.5t280 70q150 0 278 -67.5t204 -190.5t76 -279t-76 -280.5t-204 -194.5t-278 -70q-151 0 -280 67.5t-205 190.5t-76 279zM248 1214q29 145 83 206t132 61q47 0 89 -13.5t97 -37.5q47 -23 78 -33.5t61 -10.5q45 0 73 26t40 69l82 -11 q-29 -145 -83 -205.5t-134 -60.5q-45 0 -85 13.5t-98 37.5q-47 20 -78.5 31.5t-62.5 11.5q-45 0 -74.5 -26.5t-42.5 -67.5zM408 547q0 -119 26.5 -226.5t76.5 -173t120 -65.5q94 0 144 109.5t50 285.5q0 129 -27.5 235.5t-76.5 168t-115 61.5q-94 0 -146 -109.5t-52 -285.5z " />
<glyph unicode="&#xf6;" horiz-adv-x="1232" d="M57 508q0 156 76 280.5t205 194.5t280 70q150 0 278 -67.5t204 -190.5t76 -279t-76 -280.5t-204 -194.5t-278 -70q-151 0 -280 67.5t-205 190.5t-76 279zM237 1339q0 63 47 108.5t115 45.5q66 0 113 -45t47 -109q0 -63 -47.5 -108t-112.5 -45q-68 0 -115 45t-47 108z M408 547q0 -119 26.5 -226.5t76.5 -173t120 -65.5q94 0 144 109.5t50 285.5q0 129 -27.5 235.5t-76.5 168t-115 61.5q-94 0 -146 -109.5t-52 -285.5zM673 1339q0 63 47.5 108.5t112.5 45.5q68 0 115 -45t47 -109q0 -63 -47 -108t-115 -45q-65 0 -112.5 45t-47.5 108z" />
<glyph unicode="&#xf7;" d="M123 596v168h942v-168h-942zM418 319q0 68 51 118t125 50t125 -50t51 -118t-51 -118.5t-125 -50.5t-125 50t-51 119zM418 1036q0 68 51 118t125 50t125 -50t51 -118t-51 -119t-125 -51t-125 50.5t-51 119.5z" />
<glyph unicode="&#xf8;" horiz-adv-x="1232" d="M57 508q0 156 76 280.5t205 194.5t280 70q147 0 277 -68l74 102l94 -65l-74 -100q88 -72 137.5 -176.5t49.5 -229.5q0 -156 -76 -280.5t-204 -194.5t-278 -70q-152 0 -278 66l-74 -100l-94 61l74 102q-88 74 -138.5 178.5t-50.5 229.5zM408 547q0 -111 20 -199l336 461 q-29 63 -69 98t-89 35q-94 0 -146 -109.5t-52 -285.5zM471 215q29 -61 70 -97t90 -36q94 0 144 109.5t50 285.5q0 106 -18 197z" />
<glyph unicode="&#xf9;" horiz-adv-x="1286" d="M31 891v76l432 80h18v-721q0 -80 44 -127t130 -47q88 0 140 51v16v543q0 57 -23.5 82.5t-103.5 46.5v76l432 80h18v-787q0 -63 26.5 -91t100.5 -40v-78l-371 -69q-49 49 -69 149q-49 -68 -128 -112t-185 -44q-168 0 -251 92.5t-83 235.5v459q0 57 -24.5 82.5t-102.5 46.5 zM291 1485v28h317l119 -364h-105z" />
<glyph unicode="&#xfa;" horiz-adv-x="1286" d="M31 891v76l432 80h18v-721q0 -80 44 -127t130 -47q88 0 140 51v16v543q0 57 -23.5 82.5t-103.5 46.5v76l432 80h18v-787q0 -63 26.5 -91t100.5 -40v-78l-371 -69q-49 49 -69 149q-49 -68 -128 -112t-185 -44q-168 0 -251 92.5t-83 235.5v459q0 57 -24.5 82.5t-102.5 46.5 zM553 1149l120 364h316v-28l-332 -336h-104z" />
<glyph unicode="&#xfb;" horiz-adv-x="1286" d="M31 891v76l432 80h18v-721q0 -80 44 -127t130 -47q88 0 140 51v16v543q0 57 -23.5 82.5t-103.5 46.5v76l432 80h18v-787q0 -63 26.5 -91t100.5 -40v-78l-371 -69q-49 49 -69 149q-49 -68 -128 -112t-185 -44q-168 0 -251 92.5t-83 235.5v459q0 57 -24.5 82.5t-102.5 46.5 zM277 1149l213 364h299l213 -364h-111l-250 219l-254 -219h-110z" />
<glyph unicode="&#xfc;" horiz-adv-x="1286" d="M31 891v76l432 80h18v-721q0 -80 44 -127t130 -47q88 0 140 51v16v543q0 57 -23.5 82.5t-103.5 46.5v76l432 80h18v-787q0 -63 26.5 -91t100.5 -40v-78l-371 -69q-49 49 -69 149q-49 -68 -128 -112t-185 -44q-168 0 -251 92.5t-83 235.5v459q0 57 -24.5 82.5t-102.5 46.5 zM260 1339q0 63 47 108.5t115 45.5q66 0 113 -45t47 -109q0 -63 -47.5 -108t-112.5 -45q-68 0 -115 45t-47 108zM696 1339q0 63 47.5 108.5t112.5 45.5q68 0 115 -45t47 -109q0 -63 -47 -108t-115 -45q-65 0 -112.5 45t-47.5 108z" />
<glyph unicode="&#xfd;" horiz-adv-x="1161" d="M12 934v90h576v-90l-29 -4q-47 -6 -70.5 -26.5t-23.5 -59.5q0 -41 27 -101l178 -411l166 399q29 74 28 113q0 74 -88 86l-28 4v90h409v-90q-57 -14 -98 -61.5t-92 -163.5l-322 -738q-72 -164 -132 -253t-121.5 -123.5t-143.5 -34.5q-68 0 -120 19.5t-85 49.5 q16 76 59 131.5t117 55.5q33 0 90 -15q45 -12 64 -12q35 0 62.5 29.5t72.5 126.5l-332 762q-53 123 -86 169t-78 58zM541 1149l120 364h316v-28l-332 -336h-104z" />
<glyph unicode="&#xfe;" horiz-adv-x="1245" d="M16 -342l27 4q55 8 77.5 32.5t22.5 86.5v1436q0 59 -25.5 83.5t-101.5 45.5v77l433 93h18v-607q43 57 119 97.5t178 40.5q119 0 214 -61.5t149.5 -177.5t54.5 -267q0 -166 -67.5 -295t-198 -201t-308.5 -72q-66 0 -141 11v-203q0 -61 22.5 -86t77.5 -33l27 -4v-88h-578 v88zM467 125q55 -41 131 -41q121 0 179.5 101.5t58.5 312.5q0 186 -60.5 280t-169.5 94q-84 0 -139 -49v-698z" />
<glyph unicode="&#xff;" horiz-adv-x="1161" d="M12 934v90h576v-90l-29 -4q-47 -6 -70.5 -26.5t-23.5 -59.5q0 -41 27 -101l178 -411l166 399q29 74 28 113q0 74 -88 86l-28 4v90h409v-90q-57 -14 -98 -61.5t-92 -163.5l-322 -738q-72 -164 -132 -253t-121.5 -123.5t-143.5 -34.5q-68 0 -120 19.5t-85 49.5 q16 76 59 131.5t117 55.5q33 0 90 -15q45 -12 64 -12q35 0 62.5 29.5t72.5 126.5l-332 762q-53 123 -86 169t-78 58zM248 1339q0 63 47 108.5t115 45.5q66 0 113 -45t47 -109q0 -63 -47.5 -108t-112.5 -45q-68 0 -115 45t-47 108zM684 1339q0 63 47.5 108.5t112.5 45.5 q68 0 115 -45t47 -109q0 -63 -47 -108t-115 -45q-65 0 -112.5 45t-47.5 108z" />
<glyph unicode="&#x152;" horiz-adv-x="2129" d="M74 713q0 217 97 388t265 265t373 94q125 0 231 -26h947v-373h-103q-29 96 -63.5 147.5t-94 75t-163.5 23.5h-220v-504h132q92 0 138 35.5t68 124.5h93v-467h-93q-25 94 -70.5 137t-135.5 43h-132v-445q0 -59 35 -81.5t113 -22.5h88q121 0 188.5 25.5t110.5 89t84 192.5 h102l-30 -434h-998q-119 -27 -227 -27q-205 0 -373 93.5t-265 261.5t-97 385zM446 758q0 -183 45.5 -333.5t132.5 -239.5t203 -89q102 0 177 45v1143q-78 53 -199 53q-104 0 -186 -73.5t-127.5 -204.5t-45.5 -301z" />
<glyph unicode="&#x153;" horiz-adv-x="1869" d="M57 508q0 156 76 280.5t205 194.5t280 70q115 0 217.5 -43t176.5 -123q70 80 161 123t191 43q141 0 241.5 -60.5t151.5 -159t51 -210.5q0 -47 -2 -64h-645q8 -180 97.5 -264t222.5 -84q88 0 151.5 38t120.5 118l68 -35q-61 -180 -182 -270.5t-285 -90.5q-111 0 -203 39 t-158 111q-74 -72 -171 -111t-204 -39q-152 0 -280.5 67.5t-204.5 190.5t-76 279zM408 547q0 -119 26.5 -226.5t76.5 -173t120 -65.5q94 0 144 109.5t50 285.5q0 129 -27.5 235.5t-76.5 168t-115 61.5q-94 0 -146 -109.5t-52 -285.5zM1163 668h346q-8 127 -50 201.5 t-116 74.5q-75 0 -122 -71.5t-58 -204.5z" />
<glyph unicode="&#x178;" horiz-adv-x="1437" d="M20 1341v93h699v-93l-39 -4q-57 -6 -87 -23.5t-30 -49.5q0 -29 25 -72l235 -399l219 391q25 43 25 71q0 68 -121 82l-31 4v93h502v-93l-22 -4q-63 -12 -110.5 -51t-102.5 -137l-281 -485v-453q0 -57 33 -82t94 -33l31 -4v-92h-656v92l31 4q61 8 94 33t33 82v401l-346 576 q-49 82 -83 110.5t-91 38.5zM358 1692q0 63 47.5 108t114.5 45q66 0 113 -45t47 -108t-47 -109.5t-113 -46.5q-67 0 -114.5 46t-47.5 110zM823 1692q0 63 47.5 108t112.5 45q68 0 115 -45t47 -108t-47 -109.5t-115 -46.5q-65 0 -112.5 46t-47.5 110z" />
<glyph unicode="&#x2c6;" horiz-adv-x="1228" d="M242 1149l213 364h299l213 -364h-111l-250 219l-254 -219h-110z" />
<glyph unicode="&#x2dc;" horiz-adv-x="1228" d="M246 1214q29 145 83 206t132 61q47 0 89 -13.5t97 -37.5q47 -23 78 -33.5t61 -10.5q45 0 73 26t40 69l82 -11q-29 -145 -83 -205.5t-134 -60.5q-45 0 -85 13.5t-98 37.5q-47 20 -78.5 31.5t-62.5 11.5q-45 0 -74.5 -26.5t-42.5 -67.5z" />
<glyph unicode="&#x2000;" horiz-adv-x="971" />
<glyph unicode="&#x2001;" horiz-adv-x="1942" />
<glyph unicode="&#x2002;" horiz-adv-x="971" />
<glyph unicode="&#x2003;" horiz-adv-x="1942" />
<glyph unicode="&#x2004;" horiz-adv-x="647" />
<glyph unicode="&#x2005;" horiz-adv-x="485" />
<glyph unicode="&#x2006;" horiz-adv-x="323" />
<glyph unicode="&#x2007;" horiz-adv-x="323" />
<glyph unicode="&#x2008;" horiz-adv-x="242" />
<glyph unicode="&#x2009;" horiz-adv-x="388" />
<glyph unicode="&#x200a;" horiz-adv-x="107" />
<glyph unicode="&#x2010;" horiz-adv-x="788" d="M92 492v227h604v-227h-604z" />
<glyph unicode="&#x2011;" horiz-adv-x="788" d="M92 492v227h604v-227h-604z" />
<glyph unicode="&#x2012;" horiz-adv-x="788" d="M92 492v227h604v-227h-604z" />
<glyph unicode="&#x2013;" horiz-adv-x="1400" d="M92 518v174h1217v-174h-1217z" />
<glyph unicode="&#x2014;" horiz-adv-x="2048" d="M92 518v174h1864v-174h-1864z" />
<glyph unicode="&#x2018;" horiz-adv-x="530" d="M82 1079q0 86 43 168t126 137.5t198 63.5v-92q-74 -10 -122 -45t-48 -84q0 -29 17 -45.5t52 -36.5q45 -23 70.5 -50.5t25.5 -78.5q0 -63 -48 -109.5t-117 -46.5q-92 0 -144.5 61.5t-52.5 157.5z" />
<glyph unicode="&#x2019;" horiz-adv-x="530" d="M82 870v93q74 10 122 44.5t48 84.5q0 29 -17.5 45t-52.5 37q-47 27 -71.5 52t-24.5 79q0 61 48 107t118 46q92 0 144.5 -61.5t52.5 -157.5q0 -86 -43.5 -168t-126 -137t-197.5 -64z" />
<glyph unicode="&#x201a;" horiz-adv-x="538" d="M80 -182q74 10 122 44.5t48 84.5q0 29 -17.5 45t-52.5 37q-47 27 -71.5 52t-24.5 79q0 61 48 107t118 46q92 0 144.5 -61.5t52.5 -157.5q0 -86 -43.5 -168t-126 -137t-197.5 -64v93z" />
<glyph unicode="&#x201c;" horiz-adv-x="991" d="M82 1079q0 86 43 168t126 137.5t198 63.5v-92q-74 -10 -122 -45t-48 -84q0 -29 17 -45.5t52 -36.5q45 -23 70.5 -50.5t25.5 -78.5q0 -63 -48 -109.5t-117 -46.5q-92 0 -144.5 61.5t-52.5 157.5zM543 1079q0 86 43 168t126 137.5t198 63.5v-92q-74 -10 -122 -45t-48 -84 q0 -29 17 -45.5t52 -36.5q45 -23 70.5 -50.5t25.5 -78.5q0 -63 -48 -109.5t-117 -46.5q-92 0 -144.5 61.5t-52.5 157.5z" />
<glyph unicode="&#x201d;" horiz-adv-x="991" d="M82 870v93q74 10 122 44.5t48 84.5q0 29 -17.5 45t-52.5 37q-47 27 -71.5 52t-24.5 79q0 61 48 107t118 46q92 0 144.5 -61.5t52.5 -157.5q0 -86 -43.5 -168t-126 -137t-197.5 -64zM543 870v93q74 10 122 44.5t48 84.5q0 29 -17.5 45t-52.5 37q-47 27 -71.5 52t-24.5 79 q0 61 48 107t118 46q92 0 144.5 -61.5t52.5 -157.5q0 -86 -43.5 -168t-126 -137t-197.5 -64z" />
<glyph unicode="&#x201e;" horiz-adv-x="1001" d="M80 -182q74 10 122 44.5t48 84.5q0 29 -17.5 45t-52.5 37q-47 27 -71.5 52t-24.5 79q0 61 48 107t118 46q92 0 144.5 -61.5t52.5 -157.5q0 -86 -43.5 -168t-126 -137t-197.5 -64v93zM541 -182q74 10 122 44.5t48 84.5q0 29 -17.5 45t-52.5 37q-47 27 -71.5 52t-24.5 79 q0 61 48 107t118 46q92 0 144.5 -61.5t52.5 -157.5q0 -86 -43.5 -168t-126 -137t-197.5 -64v93z" />
<glyph unicode="&#x2022;" horiz-adv-x="968" d="M139 676q0 92 47 171t126 126t173 47q92 0 171 -47t126 -126t47 -171q0 -94 -47 -173t-125.5 -126t-171.5 -47q-94 0 -173 47t-126 126t-47 173z" />
<glyph unicode="&#x2026;" horiz-adv-x="1671" d="M92 168q0 78 56.5 133t134.5 55q80 0 137 -55t57 -133t-57.5 -133t-136.5 -55q-78 0 -134.5 55t-56.5 133zM643 168q0 78 56.5 133t134.5 55q80 0 137 -55t57 -133t-57.5 -133t-136.5 -55q-78 0 -134.5 55t-56.5 133zM1194 168q0 78 56.5 133t134.5 55q80 0 137 -55 t57 -133t-57.5 -133t-136.5 -55q-78 0 -134.5 55t-56.5 133z" />
<glyph unicode="&#x202f;" horiz-adv-x="388" />
<glyph unicode="&#x2039;" horiz-adv-x="786" d="M133 510v14l453 441l76 -58l-283 -391l283 -391l-76 -57z" />
<glyph unicode="&#x203a;" horiz-adv-x="786" d="M123 125l283 391l-283 391l78 58l450 -441v-14l-450 -442z" />
<glyph unicode="&#x205f;" horiz-adv-x="485" />
<glyph unicode="&#x20ac;" d="M63 811v113h125q33 164 115 286.5t202 189t261 66.5q184 0 348 -82v-364h-104q-37 176 -94.5 255t-143.5 79q-109 0 -168 -113t-74 -317h398l-33 -113h-371v-47q0 -53 2 -78h344l-34 -113h-301q23 -184 93 -287.5t191 -103.5q84 0 143.5 49.5t120.5 163.5l88 -39 q-61 -197 -180 -293t-272 -96q-225 0 -369.5 164t-173.5 442h-110v113h102v27q0 33 4 98h-109z" />
<glyph unicode="&#x2122;" horiz-adv-x="1828" d="M55 1225l15 209h635l14 -209h-55q-31 76 -63 108.5t-95 32.5h-21v-541q0 -29 16.5 -41t45.5 -16l14 -2v-49h-346v49l14 2q33 6 48.5 17.5t15.5 39.5v541h-23q-68 0 -98.5 -33t-58.5 -108h-58zM795 717v49l14 2q33 4 48 20.5t15 57.5v479q0 29 -15 40t-48 17l-14 2v50h295 l186 -453l188 453h291v-50l-14 -2q-64 -8 -64 -57v-500q0 -49 64 -57l14 -2v-49h-346v49l14 2q33 6 48.5 17.5t15.5 39.5v461l-236 -569h-55l-233 571v-442q0 -41 15 -57.5t46 -20.5l16 -2v-49h-245z" />
<glyph unicode="&#x25fc;" horiz-adv-x="1024" d="M0 0v1024h1024v-1024h-1024z" />
</font>
</defs>
</svg>
