<?xml version="1.0" standalone="no"?>
<!DOCTYPE svg PUBLIC "-//W3C//DTD SVG 1.1//EN" "http://www.w3.org/Graphics/SVG/1.1/DTD/svg11.dtd" >
<svg xmlns="http://www.w3.org/2000/svg" xmlns:xlink="http://www.w3.org/1999/xlink" version="1.1">
<metadata></metadata>
<defs>
<font id="ivar_display_hydroregular" horiz-adv-x="1105" >
<font-face units-per-em="2048" ascent="1536" descent="-512" />
<missing-glyph horiz-adv-x="327" />
<glyph unicode="&#xfb01;" horiz-adv-x="1042" d="M16 907v23l154 37v114q0 135 59.5 229.5t150.5 139.5t185 45q117 0 189.5 -43t93.5 -94q-33 -68 -100 -68q-31 0 -51.5 19.5t-45.5 56.5q-31 47 -57.5 69.5t-73.5 22.5q-174 0 -174 -354v-137h424l100 22h19v-852q0 -59 20.5 -81.5t73.5 -28.5l35 -4v-23h-434v23l34 4 q53 6 74 28.5t21 81.5v670q0 49 -8.5 70.5t-42.5 29.5h-316v-770q0 -59 20.5 -81.5t71.5 -28.5l35 -4v-23h-430v23l35 4q51 6 71.5 28.5t20.5 81.5v770h-154z" />
<glyph unicode="&#xfb02;" horiz-adv-x="1040" d="M16 907v23l154 37v116q0 139 56.5 232.5t146.5 136.5t190 43q109 0 195 -35l114 35h19v-1358q0 -59 19.5 -81.5t70.5 -28.5l35 -4v-23h-428v23l35 4q51 6 71.5 28.5t20.5 81.5v1196q-23 53 -68 90t-108 37q-98 0 -145.5 -85t-47.5 -269v-139h225l-16 -60h-209v-770 q0 -59 20.5 -81.5t71.5 -28.5l35 -4v-23h-430v23l35 4q51 6 71.5 28.5t20.5 81.5v770h-154z" />
<glyph horiz-adv-x="0" />
<glyph horiz-adv-x="682" />
<glyph unicode=" "  horiz-adv-x="327" />
<glyph unicode="&#x09;" horiz-adv-x="327" />
<glyph unicode="&#xa0;" horiz-adv-x="327" />
<glyph unicode="!" horiz-adv-x="442" d="M102 100q0 47 36 82t83 35t83 -35t36 -82t-36 -81.5t-83 -34.5t-83 34.5t-36 81.5zM104 1337q0 53 34 87t85 34t84 -32.5t33 -88.5q0 -43 -21 -213l-83 -733h-25l-86 737q-20 164 -21 209z" />
<glyph unicode="&#x22;" horiz-adv-x="700" d="M74 1339q0 45 27.5 76t74.5 31t75 -31t28 -76q0 -20 -8.5 -63t-16.5 -72l-70 -295h-16l-70 295q-8 29 -16 72t-8 63zM422 1339q0 45 27.5 76t74.5 31t75 -31t28 -76q0 -20 -8.5 -63t-16.5 -72l-70 -295h-16l-70 295q-8 29 -16 72t-8 63z" />
<glyph unicode="#" d="M33 496v32h272l86 377h-260v33h268l115 496h41l-115 -496h326l115 496h41l-115 -496h266v-33h-274l-86 -377h262v-32h-270l-115 -496h-41l115 496h-326l-115 -496h-41l115 496h-264zM346 528h326l86 377h-326z" />
<glyph unicode="$" d="M98 92l13 406h28q35 -209 132.5 -338t263.5 -146v639l-39 17q-193 82 -284 171t-91 230q0 109 56 196t150.5 138t207.5 57v148h38v-148q113 -2 198 -23.5t169 -56.5l-8 -352h-29q-39 188 -117.5 284.5t-212.5 104.5v-569l72 -31q205 -88 295 -177t90 -239 q0 -116 -57.5 -213.5t-160.5 -156t-239 -62.5v-182h-38v182q-127 4 -246 40t-191 81zM260 1159q0 -100 62.5 -162.5t212.5 -130.5v555q-123 -2 -199 -76.5t-76 -185.5zM573 12h5q141 0 225 83t84 218q0 115 -75 184.5t-234 137.5l-5 2v-625z" />
<glyph unicode="%" horiz-adv-x="1503" d="M61 1122q0 96 48.5 173t125 120t154.5 43t155 -42t125 -116.5t48 -171.5q0 -96 -48 -171.5t-125 -118.5t-155 -43t-154.5 42t-125 116.5t-48.5 168.5zM215 1143q0 -141 50 -225t134 -84q70 0 117 73.5t47 202.5q0 143 -50 226t-134 83q-70 0 -117 -73.5t-47 -202.5z M252 0l948 1434h49l-948 -1434h-49zM786 307q0 96 48.5 173t125 120t154.5 43t155 -42t125 -116.5t48 -171.5q0 -96 -48 -171.5t-125 -118.5t-155 -43t-154.5 41.5t-125 116.5t-48.5 169zM940 328q0 -141 50 -225.5t134 -84.5q70 0 117 74t47 203q0 143 -50 226t-134 83 q-70 0 -117 -73.5t-47 -202.5z" />
<glyph unicode="&#x26;" horiz-adv-x="1388" d="M102 348q0 127 84 221.5t246 190.5q-104 127 -145 210t-41 167q0 82 46 154.5t126 117.5t172 45q96 0 174 -40t122 -105.5t44 -139.5q0 -119 -79 -199.5t-233 -164.5l386 -445q47 102 81 213q10 37 11 58q0 39 -28 58.5t-85 25.5l-37 4v31h414v-31l-35 -4 q-70 -8 -115 -43t-73 -113q-49 -133 -105 -233l53 -60q111 -127 167.5 -175t111.5 -56l25 -4v-31h-291q-80 66 -168 168q-78 -98 -171 -146.5t-208 -48.5q-145 0 -246.5 53.5t-152 138.5t-50.5 183zM287 387q0 -84 41 -165t111.5 -133t158.5 -52q178 0 307 162l-446 530 q-100 -76 -136 -154.5t-36 -187.5zM395 1208q0 -80 41 -161.5t156 -212.5q102 63 150.5 145t48.5 197q0 106 -58.5 171.5t-146.5 65.5q-82 0 -136.5 -55t-54.5 -150z" />
<glyph unicode="'" horiz-adv-x="352" d="M74 1339q0 45 27.5 76t74.5 31t75 -31t28 -76q0 -20 -8.5 -63t-16.5 -72l-70 -295h-16l-70 295q-8 29 -16 72t-8 63z" />
<glyph unicode="(" horiz-adv-x="591" d="M74 631q0 221 74.5 412.5t185 327.5t225.5 210l19 -14q-141 -137 -232.5 -370.5t-91.5 -565.5t91 -565.5t233 -370.5l-19 -14q-115 73 -225.5 209.5t-185 328t-74.5 412.5z" />
<glyph unicode=")" horiz-adv-x="591" d="M14 -305q141 137 232.5 370.5t91.5 565.5t-91 565.5t-233 370.5l19 14q114 -74 225 -210t185.5 -327.5t74.5 -412.5t-74.5 -412.5t-185.5 -328t-225 -209.5z" />
<glyph unicode="*" horiz-adv-x="774" d="M102 1343q0 16 11 33q18 35 57 35q16 0 31 -8q20 -12 83.5 -76.5t102.5 -107.5q-2 8 -5 18t-7 25q-53 180 -53 208q0 29 19 47.5t48 18.5q27 0 45.5 -18.5t18.5 -47.5q0 -16 -16.5 -79.5t-22.5 -87.5l-21 -78q152 160 180 176q14 8 33 8q37 0 58 -33q8 -14 8 -33 q0 -35 -33 -55q-27 -14 -164 -49l-80 -22q59 -12 142.5 -35t101.5 -33q31 -18 31 -55q0 -18 -8 -35q-20 -33 -54 -33q-14 0 -35 10q-20 12 -127 119l-53 53q4 -12 32 -112.5t28 -128.5q0 -29 -18.5 -47.5t-45.5 -18.5q-29 0 -48 18.5t-19 47.5t63 243q-14 -12 -66 -63 q-100 -100 -118 -111q-16 -10 -35 -10q-33 0 -53 33q-8 14 -9 35q0 37 31 55q18 10 102.5 32.5t143.5 35.5l-72 20q-154 41 -172 53q-16 8 -25.5 22.5t-9.5 30.5z" />
<glyph unicode="+" d="M123 649v62h397v399h66v-399h397v-62h-397v-399h-66v399h-397z" />
<glyph unicode="," horiz-adv-x="385" d="M78 -225q158 35 158 141q0 29 -16.5 46.5t-53.5 39.5q-43 27 -63.5 50.5t-20.5 62.5q0 41 31.5 71.5t76.5 30.5q63 0 101.5 -51t38.5 -125q0 -117 -64.5 -200t-187.5 -99v33z" />
<glyph unicode="-" horiz-adv-x="552" d="M41 518v115h471v-115h-471z" />
<glyph unicode="." horiz-adv-x="385" d="M74 100q0 47 35.5 82t83.5 35q47 0 82.5 -35t35.5 -82t-35.5 -81.5t-82.5 -34.5q-48 0 -83.5 34.5t-35.5 81.5z" />
<glyph unicode="/" horiz-adv-x="655" d="M-63 -307l651 1843h51l-651 -1843h-51z" />
<glyph unicode="0" horiz-adv-x="1114" d="M70 713q0 217 61.5 387t172 265t253.5 95t254 -94t172 -262t61 -383q0 -217 -61 -387t-172 -265.5t-254 -95.5t-253.5 94.5t-172 262.5t-61.5 383zM274 737q0 -326 76 -524.5t221 -198.5q127 0 198 188.5t71 493.5q0 328 -75 525.5t-222 197.5q-127 0 -198 -188.5 t-71 -493.5z" />
<glyph unicode="1" horiz-adv-x="671" d="M61 0v23l45 4q84 8 119 34.5t35 104.5v962q0 53 -20.5 73t-83.5 20h-95v18q98 29 163 68t149 108l51 41h16v-1290q0 -78 36 -104.5t122 -34.5l41 -4v-23h-578z" />
<glyph unicode="2" horiz-adv-x="935" d="M4 0v18l178 215q201 244 291 363t140.5 230.5t50.5 230.5q0 131 -73 197.5t-194 66.5q-111 0 -188.5 -57.5t-138.5 -165.5l-27 12q49 141 153.5 245.5t276.5 104.5q113 0 196 -47t127 -127t44 -178q0 -117 -56.5 -228.5t-145.5 -217t-253 -277.5l-141 -152l-80 -86h362 q113 0 174.5 18.5t95 63.5t62.5 138h25l-47 -367h-832z" />
<glyph unicode="3" horiz-adv-x="940" d="M-2 174q25 41 59.5 61.5t75.5 20.5q31 0 53.5 -15.5t49.5 -54.5q10 -16 48 -72.5t77.5 -79t93.5 -22.5q98 0 167.5 84t69.5 242q0 125 -59.5 214t-155.5 135t-205 46v23q143 37 250 127t107 231q0 104 -64.5 161.5t-177.5 57.5q-199 0 -315 -182l-27 12q57 125 156.5 210 t255.5 85q111 0 190.5 -41t120.5 -107.5t41 -142.5q0 -100 -51 -172.5t-123 -114.5t-141 -59q168 -35 272 -149.5t104 -265.5q0 -121 -62.5 -220.5t-164.5 -157t-215 -57.5q-158 0 -267.5 57.5t-162.5 145.5z" />
<glyph unicode="4" horiz-adv-x="968" d="M35 340v119l627 975h106v-963h195l-37 -131h-158v-340h-174v340h-559zM100 471h494v770z" />
<glyph unicode="5" horiz-adv-x="923" d="M-12 174q25 41 59.5 61.5t73.5 20.5q33 0 56.5 -15.5t51.5 -60.5q10 -16 44 -68.5t74 -76t97 -23.5q111 0 181.5 96.5t70.5 243.5q0 205 -148.5 312.5t-436.5 109.5l133 660h608l-33 -162h-563l-68 -344q215 -2 369 -65.5t232.5 -174t78.5 -254.5q0 -119 -58 -225.5 t-162.5 -172t-235.5 -65.5q-160 0 -267.5 60.5t-156.5 142.5z" />
<glyph unicode="6" horiz-adv-x="1038" d="M66 559q0 246 105 438.5t282.5 311t390.5 153.5l10 -28q-244 -86 -394.5 -253t-183.5 -448q49 70 132.5 111t177.5 41q114 0 208.5 -51.5t148.5 -147.5t54 -227q0 -129 -57 -241t-159.5 -178.5t-229.5 -66.5q-152 0 -261.5 77t-166.5 210t-57 299zM266 571 q0 -250 73 -403.5t214 -153.5q117 0 180.5 115t63.5 299q0 170 -74 265t-213 95q-72 0 -135.5 -26.5t-104.5 -71.5q-4 -78 -4 -119z" />
<glyph unicode="7" horiz-adv-x="884" d="M51 1094l39 340h809v-23q-412 -682 -473 -1411h-215q45 291 198.5 640t368.5 646h-459q-80 0 -126 -22.5t-70.5 -61.5t-44.5 -108h-27z" />
<glyph unicode="8" horiz-adv-x="1021" d="M55 352q0 127 82 230.5t240 160.5q-139 88 -197.5 174.5t-58.5 182.5t52 179t143.5 132t201.5 49q113 0 203 -45t142 -124t52 -173q0 -113 -73.5 -202t-192.5 -134q127 -82 194.5 -146.5t94.5 -125.5t27 -139q0 -109 -59.5 -200t-163 -144.5t-228.5 -53.5 q-135 0 -239.5 51.5t-162 138.5t-57.5 189zM217 375q0 -98 40 -181t110.5 -131.5t158.5 -48.5q131 0 206 82t75 201q0 111 -68.5 190.5t-214.5 167.5l-116 70q-190 -117 -191 -350zM266 1180q0 -82 53.5 -154t172.5 -145l124 -78l5 -2q70 45 108.5 122.5t38.5 174.5 q0 147 -68.5 234t-187.5 87q-106 0 -176 -65.5t-70 -173.5z" />
<glyph unicode="9" horiz-adv-x="1038" d="M41 973q0 129 57.5 240.5t159.5 178t229 66.5q152 0 261.5 -76.5t167 -210t57.5 -299.5q0 -246 -105.5 -438t-282.5 -311t-390 -154l-11 29q244 86 394.5 253t183.5 447q-49 -70 -132 -110.5t-177 -40.5q-115 0 -209 51t-148.5 147.5t-54.5 227.5zM242 1004 q0 -170 73.5 -265.5t212.5 -95.5q72 0 135.5 26.5t104.5 71.5q4 78 4 119q0 250 -72.5 403.5t-214.5 153.5q-117 0 -180 -114.5t-63 -298.5z" />
<glyph unicode=":" horiz-adv-x="442" d="M103 100q0 47 35.5 82t83.5 35q47 0 82.5 -35t35.5 -82t-35.5 -81.5t-82.5 -34.5q-48 0 -83.5 34.5t-35.5 81.5zM103 854q0 47 35.5 82t83.5 35q47 0 82.5 -35t35.5 -82t-35.5 -81.5t-82.5 -34.5q-48 0 -83.5 34.5t-35.5 81.5z" />
<glyph unicode=";" horiz-adv-x="442" d="M103 -225q158 35 158 141q0 29 -16.5 46.5t-53.5 39.5q-43 27 -63.5 50.5t-20.5 62.5q0 41 31.5 71.5t76.5 30.5q63 0 101.5 -51t38.5 -125q0 -117 -64.5 -200t-187.5 -99v33zM105 854q0 47 35.5 82t83.5 35q47 0 82.5 -35t35.5 -82t-35.5 -81.5t-82.5 -34.5 q-48 0 -83.5 34.5t-35.5 81.5z" />
<glyph unicode="&#x3c;" d="M82 664v32l860 312v-68l-739 -260l739 -260v-68z" />
<glyph unicode="=" d="M123 485v62h860v-62h-860zM123 813v62h860v-62h-860z" />
<glyph unicode="&#x3e;" d="M123 352v68l739 260l-739 260v68l860 -312v-32z" />
<glyph unicode="?" horiz-adv-x="864" d="M45 1223q18 55 69.5 110.5t134.5 91t189 35.5q123 0 210 -47t132 -127t45 -178q0 -84 -33.5 -152.5t-83 -121t-126.5 -121.5q-102 -90 -144.5 -149.5t-48.5 -117.5l-6 -53h-25l-6 51q-10 72 -10 113q0 72 28.5 128t104.5 134q90 98 132 167t42 163q0 113 -59.5 191.5 t-155.5 78.5q-74 0 -110.5 -46t-63.5 -128q-14 -41 -33.5 -60.5t-54.5 -19.5q-80 0 -127 58zM246 100q0 47 35.5 82t83.5 35q47 0 82.5 -35t35.5 -82t-35.5 -81.5t-82.5 -34.5q-48 0 -83.5 34.5t-35.5 81.5z" />
<glyph unicode="@" horiz-adv-x="1783" d="M53 434q0 262 129 471t340 327t449 118q207 0 381 -86t276.5 -241t102.5 -351q0 -164 -66 -302.5t-168 -218t-209 -79.5q-123 0 -192.5 69.5t-69.5 175.5q0 31 6 58q-55 -127 -152.5 -216t-189.5 -89q-98 0 -164.5 74.5t-66.5 213.5q0 141 69.5 283.5t188.5 235t258 92.5 q55 0 103 -16.5t79 -51.5l137 55h33l-133 -557q-16 -72 -16 -118q0 -84 35.5 -123t91.5 -39q88 0 158.5 77.5t109.5 203.5t39 264q0 188 -83 333.5t-228.5 225.5t-327.5 80q-215 0 -392.5 -110t-280.5 -305.5t-103 -443.5q0 -254 109.5 -411.5t274 -225t339.5 -67.5 q143 0 271 36t224 103l21 -29q-100 -84 -252 -128t-307 -44q-178 0 -368 73t-323 242t-133 441zM633 401q0 -102 36 -162.5t95 -60.5q115 0 208 164t158 471q-16 43 -57 78t-104 35q-92 0 -169 -79t-122 -202t-45 -244z" />
<glyph unicode="A" horiz-adv-x="1390" d="M-4 0v27l31 4q57 8 95 44t71 120l497 1253h21l495 -1253q33 -84 68 -120t90 -44l31 -4v-27h-529v27l37 4q61 6 93 26.5t32 59.5q0 25 -16 67l-111 283h-547l-108 -279q-16 -39 -17 -71q0 -41 31 -60.5t94 -25.5l37 -4v-27h-395zM371 510h514l-256 657z" />
<glyph unicode="B" horiz-adv-x="1204" d="M45 0v27l37 6q61 12 93 33.5t32 78.5v1143q0 57 -33 83t-92 32l-37 4v27h565q195 0 328 -84t133 -244q0 -143 -90 -227t-221 -109q100 -8 188 -53t143.5 -127t55.5 -197q0 -188 -136.5 -290.5t-355.5 -102.5h-610zM395 143q0 -100 133 -100h115q160 0 229.5 83t69.5 257 q0 184 -93 270t-259 86h-195v-596zM395 782h207q133 0 205 74t72 229q0 172 -82 239t-217 67h-185v-609z" />
<glyph unicode="C" horiz-adv-x="1325" d="M70 713q0 219 91 389t248.5 265t348.5 95q248 0 459 -98v-348h-31q-55 225 -165 315t-267 90q-145 0 -251 -83t-161 -233.5t-55 -346.5q0 -195 58 -350.5t173 -245.5t277 -90q147 0 255.5 69.5t198.5 227.5l29 -17q-164 -381 -533 -381q-190 0 -343.5 93.5t-242.5 262.5 t-89 386z" />
<glyph unicode="D" horiz-adv-x="1411" d="M45 0v27l37 6q61 12 93 33.5t32 78.5v1143q0 57 -33 83t-92 32l-37 4v27h600q205 0 362.5 -86t245.5 -248t88 -379q0 -219 -88 -382t-245.5 -251t-362.5 -88h-600zM395 143q0 -100 133 -100h113q150 0 259.5 77t166.5 220t57 336q0 207 -58 368.5t-175 254t-289 92.5 h-207v-1248z" />
<glyph unicode="E" horiz-adv-x="1179" d="M45 0v27l37 6q61 12 93 33.5t32 78.5v1143q0 57 -33 83t-92 32l-37 4v27h1004v-342h-27q-23 109 -60.5 173t-106.5 95t-181 31h-279v-633h160q111 0 166 43t80 141h24v-430h-24q-27 102 -82 152.5t-164 50.5h-160v-574q0 -59 33 -78.5t100 -19.5h131q139 0 220.5 31.5 t129.5 107.5t87 221h26l-28 -403h-1049z" />
<glyph unicode="F" horiz-adv-x="1161" d="M45 0v27l37 6q61 12 93 33.5t32 78.5v1143q0 57 -33 83t-92 32l-37 4v27h1042v-342h-26q-25 109 -61.5 173t-105.5 95t-181 31h-318v-641h226q111 0 165 42t78 140h27v-428h-27q-25 102 -80 152.5t-163 50.5h-226v-562q0 -57 32 -77.5t116 -34.5l39 -6v-27h-537z" />
<glyph unicode="G" horiz-adv-x="1427" d="M70 713q0 217 95 388t258 266t355 95q115 0 238 -25.5t227 -72.5v-344h-31q-100 401 -438 401q-145 0 -255.5 -84t-171 -234.5t-60.5 -344.5q0 -213 60.5 -382t174 -265.5t269.5 -96.5q86 0 161.5 28t130.5 81v393q0 61 -34.5 85t-108.5 30l-41 4v27h512v-27l-37 -4 q-51 -6 -76.5 -29.5t-25.5 -85.5v-399q-119 -70 -252 -108t-252 -38q-197 0 -355.5 93.5t-250.5 262.5t-92 386z" />
<glyph unicode="H" horiz-adv-x="1476" d="M45 0v27l37 6q61 12 93 33.5t32 78.5v1143q0 57 -33 83t-92 32l-37 4v27h512v-27l-37 -4q-59 -6 -92 -31.5t-33 -83.5v-524h686v524q0 57 -32.5 83t-92.5 32l-36 4v27h512v-27l-37 -4q-60 -6 -92.5 -31.5t-32.5 -83.5v-1143q0 -57 31.5 -78.5t93.5 -33.5l37 -6v-27h-512 v27l36 6q61 12 93 33.5t32 78.5v576h-686v-576q0 -57 32 -78.5t93 -33.5l37 -6v-27h-512z" />
<glyph unicode="I" horiz-adv-x="610" d="M49 0v27l37 6q61 12 93 33.5t32 78.5v1143q0 57 -33 83t-92 32l-37 4v27h512v-27l-37 -4q-59 -6 -92 -31.5t-33 -83.5v-1143q0 -57 32 -78.5t93 -33.5l37 -6v-27h-512z" />
<glyph unicode="J" horiz-adv-x="911" d="M23 127q20 37 50.5 59.5t69.5 22.5q35 0 58.5 -20.5t48.5 -57.5q37 -59 68.5 -89t80.5 -30q59 0 92 54.5t33 193.5v1028q0 57 -32.5 83t-92.5 32l-37 4v27h512v-27l-36 -4q-59 -6 -92 -31.5t-33 -83.5v-952q0 -117 -48.5 -199t-130 -123t-178.5 -41q-135 0 -218 43 t-115 111z" />
<glyph unicode="K" horiz-adv-x="1402" d="M45 0v27l37 6q61 12 93 33.5t32 78.5v1143q0 57 -33 83t-92 32l-37 4v27h512v-27l-37 -4q-59 -6 -92 -31.5t-33 -83.5v-633l523 547q92 96 92 141q0 27 -27 41.5t-82 22.5v27h426v-27q-100 -12 -184 -65.5t-189 -163.5l-305 -320l477 -641q78 -104 128.5 -140t113.5 -46 l27 -4v-27h-537v27l43 6q45 6 65.5 16t20.5 29q0 23 -35 69l-430 580l-127 -133v-449q0 -57 32 -78.5t93 -33.5l37 -6v-27h-512z" />
<glyph unicode="L" horiz-adv-x="1138" d="M45 0v27l37 6q61 12 93 33.5t32 78.5v1143q0 57 -33 83t-92 32l-37 4v27h512v-27l-37 -4q-59 -6 -92 -31.5t-33 -83.5v-1149q0 -57 33 -76.5t100 -19.5h101q139 0 224 40t136 123t86 228h27l-35 -434h-1022z" />
<glyph unicode="M" horiz-adv-x="1767" d="M45 0v27l33 4q66 8 97.5 41.5t31.5 113.5v1102q0 57 -33 83t-92 32l-37 4v27h338l508 -1172l495 1172h336v-27l-36 -4q-60 -6 -92.5 -31.5t-32.5 -83.5v-1143q0 -57 31.5 -78.5t93.5 -33.5l36 -6v-27h-512v27l37 6q61 12 93 33.5t32 78.5v1125l-536 -1270h-27l-551 1272 v-1086q0 -80 33 -114.5t96 -40.5l35 -4v-27h-377z" />
<glyph unicode="N" horiz-adv-x="1398" d="M25 0v27l32 4q66 8 102 41.5t36 113.5v1102q0 57 -33 83t-92 32l-37 4v27h321l793 -1084v897q0 80 -36 115t-101 41l-35 4v27h393v-27l-33 -4q-66 -8 -101.5 -42t-35.5 -114v-1257h-22l-930 1272v-1076q0 -80 35.5 -114.5t101.5 -40.5l35 -4v-27h-393z" />
<glyph unicode="O" horiz-adv-x="1499" d="M70 713q0 219 90 389t245.5 265t344.5 95q188 0 343.5 -93t246 -262t90.5 -386q0 -219 -90.5 -389t-246 -265.5t-343.5 -95.5q-189 0 -344.5 93.5t-245.5 262.5t-90 386zM287 758q0 -205 57 -375t164.5 -270.5t255.5 -100.5q131 0 233.5 84t158.5 234.5t56 345.5 q0 207 -56 377t-164.5 269t-256.5 99q-131 0 -233.5 -84t-158.5 -234.5t-56 -344.5z" />
<glyph unicode="P" horiz-adv-x="1159" d="M45 0v27l37 6q61 12 93 33.5t32 78.5v1143q0 57 -33 83t-92 32l-37 4v27h594q121 0 229.5 -45.5t176 -135.5t67.5 -217q0 -135 -62.5 -228t-168 -139t-232.5 -46h-254v-478q0 -59 31 -78.5t117 -33.5l39 -6v-27h-537zM395 666h205q172 0 242.5 87t70.5 269 q0 188 -90 278.5t-235 90.5h-193v-725z" />
<glyph unicode="Q" horiz-adv-x="1499" d="M70 713q0 219 90 389t245.5 265t344.5 95q188 0 343.5 -93t246 -262t90.5 -386q0 -176 -59.5 -321.5t-165 -247t-242.5 -146.5l90 -67q94 -70 174 -105t172 -35q74 0 131 31v-27q-113 -92 -268 -92q-176 0 -353 131l-170 129q-186 2 -338.5 96.5t-241.5 262.5t-89 383z M287 758q0 -205 57 -375t164.5 -270.5t255.5 -100.5q131 0 233.5 84t158.5 234.5t56 345.5q0 207 -56 377t-164.5 269t-256.5 99q-131 0 -233.5 -84t-158.5 -234.5t-56 -344.5z" />
<glyph unicode="R" horiz-adv-x="1335" d="M45 0v27l37 6q61 12 93 33.5t32 78.5v1143q0 57 -33 83t-92 32l-37 4v27h576q123 0 232.5 -37t180 -119t70.5 -209q0 -152 -99.5 -245t-254.5 -124l280 -397q100 -143 159.5 -200.5t119.5 -69.5l30 -6v-27h-303q-20 27 -30 39q-106 139 -140 188l-243 355 q-43 63 -68 80.5t-66 17.5h-94v-535q0 -57 33 -78.5t109 -33.5l38 -6v-27h-530zM395 723h185q335 0 335 324q0 186 -98 265t-258 79h-164v-668z" />
<glyph unicode="S" horiz-adv-x="1103" d="M86 92l12 406h31q37 -221 148.5 -353.5t302.5 -132.5q145 0 232 83t87 218q0 115 -77 184.5t-242 137.5l-84 35q-199 82 -292 171t-93 230q0 113 61 202t164.5 139t222.5 50q121 0 213 -22.5t182 -57.5l-8 -352h-31q-41 199 -130 295t-240 96q-131 0 -211 -74.5 t-80 -187.5q0 -104 70.5 -169.5t242.5 -135.5l84 -35q209 -88 302.5 -177t93.5 -239q0 -119 -61.5 -218t-173.5 -156.5t-253 -57.5q-135 0 -264 37t-209 84z" />
<glyph unicode="T" horiz-adv-x="1265" d="M41 1069l27 365h1130l27 -365h-27q-37 174 -118 248t-255 74h-98v-1246q0 -57 32 -78.5t93 -33.5l37 -6v-27h-512v27l37 6q61 12 93 33.5t32 78.5v1246h-97q-174 0 -256 -74t-118 -248h-27z" />
<glyph unicode="U" horiz-adv-x="1394" d="M33 1407v27h522v-27l-37 -4q-63 -6 -99 -31.5t-36 -83.5v-782q0 -236 107.5 -348.5t285.5 -112.5q168 0 266.5 104.5t98.5 329.5v768q0 80 -35 114t-102 42l-35 4v27h393v-27l-33 -4q-68 -8 -102.5 -42t-34.5 -114v-778q0 -227 -119 -362.5t-358 -135.5 q-268 0 -394 135.5t-126 382.5v799q0 57 -33 83t-92 32z" />
<glyph unicode="V" horiz-adv-x="1386" d="M4 1407v27h524v-27l-36 -4q-70 -8 -101 -25.5t-31 -56.5q0 -33 17 -72l379 -981l383 973q18 47 18 76q0 39 -30.5 58.5t-96.5 27.5l-33 4v27h385v-27l-20 -4q-61 -12 -100 -48t-72 -118l-498 -1251h-20l-492 1253q-35 88 -64.5 122t-86.5 42z" />
<glyph unicode="W" horiz-adv-x="2033" d="M8 1407v27h512v-27l-37 -4q-61 -6 -94 -27.5t-33 -64.5q0 -25 13 -62l344 -973l276 758l-69 205q-33 92 -57.5 124t-86.5 40l-28 4v27h503v-27l-32 -4q-63 -8 -96 -28.5t-33 -65.5q0 -25 12 -60l328 -973l350 969q14 37 14 68q0 43 -30.5 62.5t-94.5 27.5l-33 4v27h389 v-27l-20 -4q-66 -14 -104.5 -48t-69.5 -116l-457 -1255h-24l-336 979l-357 -979h-22l-451 1255q-31 88 -61.5 122t-85.5 42z" />
<glyph unicode="X" horiz-adv-x="1439" d="M25 0v27l22 4q143 25 229 155l342 521l-348 540q-49 76 -88 111t-98 45l-25 4v27h539v-27l-39 -4q-110 -12 -110 -71q0 -30 24 -70l275 -439l288 437q29 43 29 75q0 55 -102 68l-35 4v27h420v-27l-23 -4q-152 -27 -238 -156l-309 -461l391 -600q45 -70 98.5 -106.5 t125.5 -48.5l22 -4v-27h-551v27l41 4q94 8 94 59q0 29 -32 82l-320 492l-319 -490q-27 -41 -27 -72q0 -59 109 -71l36 -4v-27h-421z" />
<glyph unicode="Y" horiz-adv-x="1253" d="M4 1407v27h522v-27l-37 -4q-57 -6 -86.5 -23.5t-29.5 -50.5q0 -27 22 -67l301 -549l291 538q20 39 21 68q0 72 -125 84l-35 4v27h401v-27l-22 -4q-61 -10 -107.5 -50t-89.5 -120l-301 -555v-533q0 -57 32 -78.5t93 -33.5l37 -6v-27h-512v27l37 6q61 12 93 33.5t32 78.5 v488l-344 614q-45 80 -80 114t-88 42z" />
<glyph unicode="Z" horiz-adv-x="1218" d="M37 0v23l915 1368h-434q-121 0 -191.5 -38t-110.5 -105.5t-79 -186.5h-26l32 373h1033v-23l-916 -1368h428q143 0 226 36t131.5 113.5t95.5 225.5h26l-28 -418h-1102z" />
<glyph unicode="[" horiz-adv-x="579" d="M184 -264v1802h355v-33h-191v-1736h191v-33h-355z" />
<glyph unicode="\" horiz-adv-x="655" d="M16 1536h52l651 -1843h-51z" />
<glyph unicode="]" horiz-adv-x="579" d="M41 -231h190v1736h-190v33h354v-1802h-354v33z" />
<glyph unicode="^" horiz-adv-x="942" d="M41 532l414 902h32l414 -902h-67l-363 801l-362 -801h-68z" />
<glyph unicode="_" horiz-adv-x="1155" d="M-6 -195h1167v-102h-1167v102z" />
<glyph unicode="`" horiz-adv-x="1228" d="M479 1364v8h176l94 -299h-26z" />
<glyph unicode="a" horiz-adv-x="909" d="M63 238q0 96 62.5 149t216.5 105l258 83v144q0 127 -40 185.5t-126 58.5q-66 0 -92.5 -33t-56.5 -129q-14 -45 -35 -61.5t-53 -16.5q-37 0 -65 15.5t-42 39.5q14 51 59.5 101.5t120 82t170.5 31.5q172 0 253 -75.5t81 -194.5v-541q0 -55 18.5 -80.5t63.5 -25.5 q37 0 64 16v-18q-37 -43 -83 -64.5t-92 -21.5q-70 0 -103.5 42t-39.5 105q-49 -66 -126 -108.5t-159 -42.5q-109 0 -181.5 73.5t-72.5 180.5zM227 291q0 -86 50.5 -149.5t142.5 -63.5q55 0 102 23.5t78 62.5v375l-231 -80q-82 -29 -112 -65t-30 -103z" />
<glyph unicode="b" horiz-adv-x="1021" d="M-6 1397v18l291 86h12v-649q41 57 113.5 96t169.5 39q108 0 196 -58.5t138.5 -167t50.5 -251.5q0 -156 -63.5 -277.5t-175.5 -188.5t-251 -67q-211 0 -354 95v1202q0 61 -26.5 88t-100.5 35zM297 84q66 -70 184 -70q144 0 218.5 117t74.5 342q0 207 -76.5 317.5 t-210.5 110.5q-111 0 -190 -76v-741z" />
<glyph unicode="c" horiz-adv-x="860" d="M53 471q0 150 60.5 269.5t162 186t220.5 66.5q106 0 179 -32.5t109.5 -76.5t46.5 -81q-14 -29 -41.5 -46.5t-58.5 -17.5t-51.5 14.5t-42.5 57.5q-43 82 -76 112.5t-102 30.5q-57 0 -114.5 -42t-95.5 -130t-38 -221q0 -137 45 -234.5t122 -147.5t169 -50q98 0 164.5 42 t124.5 134l16 -10q-51 -156 -146.5 -237t-226.5 -81t-227 63.5t-147.5 175.5t-51.5 255z" />
<glyph unicode="d" horiz-adv-x="1048" d="M57 459q0 154 61.5 274.5t173 188t257.5 67.5q100 0 174 -26v311q0 59 -26.5 87t-100.5 36v18l291 86h12v-1292q0 -82 24.5 -116t100.5 -40v-20l-248 -47q-35 70 -43 137q-41 -57 -116.5 -100t-176.5 -43q-109 0 -195.5 58t-137 166.5t-50.5 254.5zM248 494 q0 -203 79 -314.5t214 -111.5q110 0 188 86q-6 49 -6 114v594q-66 90 -180 90q-139 0 -217 -115.5t-78 -342.5z" />
<glyph unicode="e" horiz-adv-x="876" d="M53 461q0 156 57.5 276.5t151.5 187t201 66.5q117 0 197.5 -52t120.5 -134t40 -174l-2 -45h-614v-13q0 -225 95 -336.5t243 -111.5q90 0 157.5 38t124.5 124l17 -11q-61 -150 -158.5 -225.5t-216.5 -75.5t-213 61.5t-147.5 172t-53.5 252.5zM207 627h448 q-6 154 -57 240.5t-147 86.5q-95 0 -163.5 -88t-80.5 -239z" />
<glyph unicode="f" horiz-adv-x="577" d="M16 907v23l154 37v114q0 139 52 232.5t134 138.5t170 45q100 0 165 -35t89 -80q-14 -31 -40.5 -49t-59.5 -18q-29 0 -47.5 14t-44.5 47q-33 45 -53.5 63.5t-53.5 18.5q-70 0 -102.5 -88t-32.5 -272v-131h225l-16 -60h-209v-770q0 -59 32 -80.5t111 -29.5l39 -4v-23h-485 v23l35 4q51 6 71.5 28.5t20.5 81.5v770h-154z" />
<glyph unicode="g" horiz-adv-x="923" d="M23 -178q0 129 178 211q-106 43 -107 133q0 63 49.5 116.5t126.5 92.5q-88 43 -140 118.5t-52 168.5q0 92 49 166.5t133 118.5t182 44q86 0 162 -37h316l-17 -59h-215q53 -41 85 -103.5t32 -132.5q0 -88 -49 -162.5t-132 -117.5t-180 -43q-82 0 -153 31q-74 -51 -74 -117 q0 -51 55.5 -72.5t178.5 -21.5h120q172 0 256 -60.5t84 -154.5q0 -86 -61.5 -169t-176 -135.5t-265.5 -52.5q-174 0 -279.5 65.5t-105.5 172.5zM244 -296.5q92 -65.5 239 -65.5q142 0 225 60t83 157q0 70 -51.5 107.5t-182.5 37.5h-135q-117 0 -201 25q-69 -48 -69 -151 q0 -105 92 -170.5zM256 676q0 -133 55.5 -219t139.5 -86q78 0 127 76.5t49 199.5q0 131 -55.5 220t-139.5 89q-80 0 -128 -77.5t-48 -202.5z" />
<glyph unicode="h" horiz-adv-x="1075" d="M33 0v23l35 4q51 6 71.5 28.5t20.5 81.5v1137q0 61 -27 88t-100 35v18l291 86h12v-676q49 70 132 120t181 50q141 0 211 -84t70 -196v-578q0 -59 19.5 -81.5t70.5 -28.5l35 -4v-23h-426v23l35 4q51 6 70.5 28.5t19.5 81.5v529q0 113 -50.5 173t-146.5 60 q-66 0 -123 -28.5t-98 -75.5v-658q0 -59 19.5 -81.5t70.5 -28.5l35 -4v-23h-428z" />
<glyph unicode="i" horiz-adv-x="493" d="M41 0v23l35 4q51 6 71.5 28.5t20.5 81.5v625q0 61 -26.5 88t-100.5 35v18l291 86h12v-852q0 -59 19.5 -81.5t70.5 -28.5l35 -4v-23h-428zM139 1233q0 43 32 74.5t77 31.5t76.5 -31.5t31.5 -74.5t-31.5 -75t-76.5 -32t-77 32t-32 75z" />
<glyph unicode="j" horiz-adv-x="473" d="M-188 -313q16 29 42.5 47t57.5 18q29 0 48.5 -15.5t35.5 -43.5q27 -39 48.5 -60.5t49.5 -21.5q47 0 59.5 63.5t12.5 229.5v858q0 61 -26.5 88t-100.5 35v18l291 86h12v-1071q0 -170 -82 -256t-209 -86q-92 0 -154.5 33t-84.5 78zM141 1233q0 43 32 74.5t77 31.5 t76.5 -31.5t31.5 -74.5t-31.5 -75t-76.5 -32t-77 32t-32 75z" />
<glyph unicode="k" horiz-adv-x="1032" d="M33 0v23l35 4q51 6 71.5 28.5t20.5 81.5v1137q0 61 -27 88t-100 35v18l291 86h12v-991l266 250q88 82 88 129q0 39 -57 51l-27 6v21h363v-21q-76 -18 -157 -69.5t-183 -145.5l-109 -100l293 -406q84 -115 119 -150.5t88 -45.5l33 -6v-23h-420v23l41 4q45 2 45 26 q0 29 -62 111l-256 356l-65 -61v-322q0 -59 19.5 -81.5t70.5 -28.5l35 -4v-23h-428z" />
<glyph unicode="l" horiz-adv-x="485" d="M33 0v23l35 4q51 6 71.5 28.5t20.5 81.5v1137q0 61 -27 88t-100 35v18l291 86h12v-1364q0 -59 19.5 -81.5t70.5 -28.5l35 -4v-23h-428z" />
<glyph unicode="m" horiz-adv-x="1613" d="M41 0v23l35 4q51 6 71.5 28.5t20.5 81.5v627q0 59 -26.5 86t-100.5 35v18l287 86h12v-162q45 70 125 119t174 49q104 0 164.5 -49t85.5 -129q47 74 127 126t182 52q141 0 205.5 -84t64.5 -202v-574q0 -57 19.5 -79.5t71.5 -28.5l34 -4v-23h-426v23l35 4q51 6 70.5 28.5 t19.5 79.5v551q0 104 -49 160.5t-135 56.5q-63 0 -117.5 -30.5t-93.5 -81.5q8 -35 8 -82v-574q0 -57 19.5 -79.5t70.5 -28.5l37 -4v-23h-430v23l37 4q51 6 70.5 28.5t19.5 79.5v551q0 104 -49 160.5t-135 56.5q-57 0 -109.5 -28.5t-91.5 -71.5v-666q0 -59 19.5 -81.5 t70.5 -28.5l35 -4v-23h-428z" />
<glyph unicode="n" horiz-adv-x="1079" d="M41 0v23l35 4q51 6 71.5 28.5t20.5 81.5v627q0 59 -26.5 86t-100.5 35v18l287 86h12v-168q47 70 132 122t185 52q141 0 209 -80.5t68 -191.5v-586q0 -59 19.5 -81.5t70.5 -28.5l35 -4v-23h-426v23l35 4q51 6 70.5 28.5t19.5 81.5v537q0 111 -49.5 168t-143.5 57 q-63 0 -120.5 -28.5t-100.5 -75.5v-658q0 -59 19.5 -81.5t70.5 -28.5l35 -4v-23h-428z" />
<glyph unicode="o" horiz-adv-x="1036" d="M53 479q0 147 64.5 264t171 182.5t229.5 65.5t229.5 -63.5t171 -178t64.5 -262.5q0 -147 -64.5 -264t-171 -182.5t-229.5 -65.5t-229.5 63.5t-171 178.5t-64.5 262zM250 522q0 -131 33.5 -248.5t98 -189.5t148.5 -72q121 0 188.5 120t67.5 312q0 143 -35.5 259t-99 183.5 t-145.5 67.5q-121 0 -188.5 -119.5t-67.5 -312.5z" />
<glyph unicode="p" horiz-adv-x="1056" d="M31 -391l35 4q51 6 70.5 27.5t19.5 80.5v1041q0 59 -26 87t-99 36v18l284 86h13v-141q41 57 113.5 98t170.5 41q111 0 199 -58.5t138 -167t50 -251.5q0 -156 -63.5 -276.5t-173 -188.5t-244.5 -68q-100 0 -186 25v-281q0 -59 19.5 -80.5t70.5 -27.5l35 -4v-25h-426v25z M332 102q70 -88 198 -88q127 0 203 119t76 340q0 205 -77 316.5t-208 111.5q-115 0 -192 -74v-725z" />
<glyph unicode="q" horiz-adv-x="1005" d="M57 459q0 154 62.5 274.5t174.5 188t257 67.5q121 0 209 -43l129 43h10v-1268q0 -57 19.5 -79.5t70.5 -28.5l37 -4v-25h-428v25l35 4q51 6 70.5 28.5t19.5 79.5v388q-45 -55 -116.5 -92t-166.5 -37q-111 0 -197.5 58t-136 166.5t-49.5 254.5zM248 494q0 -203 79 -314.5 t212 -111.5h3q108 0 181 73v721q-66 90 -182 90q-139 0 -216 -115.5t-77 -342.5z" />
<glyph unicode="r" horiz-adv-x="729" d="M41 0v23l35 4q51 6 71.5 28.5t20.5 81.5v625q0 61 -26.5 88t-100.5 35v18l287 86h12v-221q31 88 93.5 153.5t148.5 65.5q47 0 89 -21.5t64 -47.5q-12 -39 -39.5 -73t-66.5 -34q-31 0 -84 27q-41 20 -74 20q-41 0 -73.5 -38t-53.5 -97v-586q0 -57 31 -79.5t106 -30.5 l41 -4v-23h-481z" />
<glyph unicode="s" horiz-adv-x="784" d="M59 57l9 291h28q33 -145 110 -240.5t191 -95.5q90 0 142.5 53.5t52.5 143.5q0 76 -43 117t-152 88l-57 24q-139 59 -200.5 117.5t-61.5 163.5q0 76 45 139.5t119.5 100t158.5 36.5q135 0 277 -53l-4 -248h-29q-31 121 -88 192.5t-160 71.5q-80 0 -132 -48t-52 -119 q0 -66 44 -109t157 -90l59 -25q145 -59 205.5 -122.5t60.5 -165.5q0 -80 -44 -150t-122.5 -112t-177.5 -42q-184 0 -336 82z" />
<glyph unicode="t" horiz-adv-x="587" d="M16 907v23q104 25 178 100.5t113 183.5h27v-247h237l-16 -60h-221v-661q0 -84 33.5 -123t107.5 -39q68 0 125 33v-21q-53 -57 -113.5 -85.5t-121.5 -28.5q-97 0 -152 56t-55 163v706h-142z" />
<glyph unicode="u" horiz-adv-x="1050" d="M16 911v19l291 59h12v-686q0 -111 48.5 -172t148.5 -61q66 0 119 26.5t90 73.5q-4 74 -4 127v506q0 53 -27.5 77.5t-99.5 30.5v19l291 59h12v-778q0 -80 25.5 -114t101.5 -44v-20l-250 -47q-33 55 -45 157q-43 -68 -124 -117t-179 -49q-141 0 -212 83t-71 229v514 q0 53 -27.5 77.5t-99.5 30.5z" />
<glyph unicode="v" horiz-adv-x="933" d="M-6 946v21h414v-21l-39 -6q-43 -6 -63.5 -24.5t-20.5 -55.5q0 -41 39 -141l200 -498l193 479q43 109 43 156q0 37 -21.5 57.5t-66.5 28.5l-25 4v21h303v-21q-59 -12 -100 -69.5t-94 -186.5l-283 -698h-24l-283 690l-16 41q-51 125 -80 170t-76 53z" />
<glyph unicode="w" horiz-adv-x="1452" d="M-6 946v21h418v-21l-35 -6q-45 -8 -65.5 -24.5t-20.5 -51.5q0 -47 39 -145l192 -492l189 461q-57 152 -86 203t-68 55v21h391v-21l-37 -6q-43 -8 -62.5 -24.5t-19.5 -51.5q0 -47 37 -145l183 -490l186 471q43 109 43 156q0 35 -19.5 55.5t-64.5 28.5l-29 6v21h303v-21 q-59 -12 -101 -70.5t-93 -185.5l-279 -698h-24l-242 643l-260 -643h-25l-274 690q-43 111 -66.5 161t-48 74.5t-61.5 28.5z" />
<glyph unicode="x" horiz-adv-x="940" d="M-2 0v23q49 6 95 39.5t97 109.5l193 289l-190 293q-55 84 -84 121.5t-50.5 51t-54.5 19.5v21h410v-21l-39 -6q-63 -8 -64 -47q0 -25 35 -82l156 -242l162 242q28 40 28 70q0 47 -71 59l-39 6v21h333v-21q-68 -14 -115.5 -47t-94.5 -102l-179 -258l211 -322 q78 -117 117 -153.5t88 -40.5v-23h-416v23l41 4q31 4 45.5 11t14.5 25q0 27 -43 95l-176 272l-177 -272q-24 -38 -24 -64q0 -57 98 -67l39 -4v-23h-346z" />
<glyph unicode="y" horiz-adv-x="931" d="M-6 946v21h414v-21l-35 -6q-45 -8 -65.5 -26.5t-20.5 -53.5q0 -45 37 -141l198 -492l193 473q43 109 43 158q0 35 -19.5 53.5t-62.5 28.5l-31 6v21h303v-21q-61 -12 -101 -68.5t-93 -187.5l-301 -737q-59 -145 -102.5 -223t-88.5 -113t-106 -35q-84 0 -150 45 q10 55 40 90t75 35q20 0 41.5 -6t27.5 -8q37 -14 66 -14q27 0 47.5 18t44 66.5t68.5 156.5l20 51l-270 666q-61 152 -91 202t-81 62z" />
<glyph unicode="z" horiz-adv-x="880" d="M37 0v18l600 912h-193q-111 0 -174 -28t-99 -87t-62 -166h-23l25 318h729v-17l-602 -913h225q115 0 183.5 37t103 101.5t59.5 168.5h22l-24 -344h-770z" />
<glyph unicode="{" horiz-adv-x="690" d="M82 625v24l43 4q57 6 85 47t38 131.5t10 262.5q0 174 39 271t111.5 135t185.5 38h55v-33h-55q-102 0 -136 -59.5t-34 -194.5v-198q0 -125 -12.5 -204t-56.5 -134.5t-132 -77.5q88 -23 132 -78t56.5 -134t12.5 -204v-198q0 -127 40 -190.5t130 -63.5h55v-33h-55 q-113 0 -185.5 38t-111.5 135t-39 271t-10 263t-38 130t-85 48z" />
<glyph unicode="|" horiz-adv-x="462" d="M205 -291v1827h53v-1827h-53z" />
<glyph unicode="}" horiz-adv-x="690" d="M41 -231h55q102 0 136 59t34 195v198q0 125 12.5 204t56.5 134t132 78q-88 23 -132 78t-56.5 134t-12.5 204v198q0 127 -40 190.5t-130 63.5h-55v33h55q113 0 185.5 -38t111.5 -135t39 -271t10.5 -263.5t38 -130.5t84.5 -47l43 -4v-24l-43 -4q-57 -6 -84.5 -47.5 t-38 -131.5t-10.5 -262q0 -174 -39 -271t-111.5 -135t-185.5 -38h-55v33z" />
<glyph unicode="~" d="M143 590q35 106 86.5 163.5t139.5 57.5q47 0 95 -16.5t114 -44.5q68 -29 108.5 -43.5t79.5 -14.5q61 0 97 30t57 89h43q-35 -106 -86.5 -163.5t-139.5 -57.5q-47 0 -95 16.5t-114 44.5q-68 29 -108.5 43.5t-79.5 14.5q-61 0 -96 -31t-58 -88h-43z" />
<glyph unicode="&#xa1;" horiz-adv-x="421" d="M92 -369q0 43 21 213l84 734h24l86 -738q20 -164 21 -209q0 -53 -34 -86.5t-85 -33.5q-49 0 -83 32.5t-34 87.5zM92 868q0 47 36 82t83 35t83 -35t36 -82t-36 -81.5t-83 -34.5t-83 34.5t-36 81.5z" />
<glyph unicode="&#xa2;" horiz-adv-x="995" d="M90 471q0 141 53.5 256t145.5 183.5t205 80.5v209h38v-207q154 0 235 -62.5t103 -127.5q-14 -29 -41.5 -45.5t-54.5 -16.5q-31 0 -52.5 15.5t-43.5 56.5q-33 66 -64.5 98.5t-81.5 40.5v-827q33 -4 52 -4q98 0 164.5 44t123.5 140l17 -10q-49 -150 -140.5 -231.5 t-216.5 -86.5v-188h-38v188q-186 8 -295 145.5t-109 348.5zM242 561q0 -176 68.5 -285.5t183.5 -142.5v821q-59 -2 -117 -44t-96.5 -130t-38.5 -219z" />
<glyph unicode="&#xa3;" d="M96 0v18q207 213 207 498q0 96 -18 189h-179v40h170l-12 46q-18 74 -27.5 125t-9.5 120q0 117 50.5 214.5t144.5 153.5t221 56q133 0 234.5 -60.5t123.5 -148.5q-16 -31 -45.5 -50t-70.5 -19q-37 0 -58.5 16t-40.5 55q-8 18 -30.5 70.5t-53 75t-79.5 22.5 q-104 0 -152.5 -101t-48.5 -245q0 -90 8 -161.5t10 -82.5q8 -57 11 -86h352v-40h-348q2 -25 2 -76q0 -160 -61.5 -282t-168.5 -200h439q113 0 173 18.5t94 63.5t62 138h25l-47 -367h-877z" />
<glyph unicode="&#xa4;" d="M154 276l176 177q-84 100 -84 227t84 227l-176 176l36 37l177 -176q100 84 227 84t227 -84l176 176l37 -37l-176 -176q84 -100 84 -227t-84 -227l176 -177l-37 -36l-176 176q-100 -84 -227 -84t-227 84l-177 -176zM301 680q0 -80 39 -147.5t106.5 -107.5t147.5 -40 t147.5 40t106.5 107.5t39 147.5t-39 147.5t-106.5 107.5t-147.5 40t-147.5 -40t-106.5 -107.5t-39 -147.5z" />
<glyph unicode="&#xa5;" d="M-12 1403v31h495v-31l-37 -4q-59 -6 -89.5 -22.5t-30.5 -49.5q0 -27 20 -65l268 -506l260 497q18 37 19 64q0 70 -123 82l-35 4v31h391v-31l-22 -4q-59 -10 -101 -48t-83 -118l-271 -512h334v-41h-340v-186h340v-41h-340v-303q0 -57 34 -79t99 -34l37 -6v-31h-520v31 l37 6q66 12 99.5 33.5t33.5 79.5v303h-344v41h344v186h-344v41h323l-286 526q-43 82 -72 113t-74 39z" />
<glyph unicode="&#xa6;" horiz-adv-x="462" d="M205 -291v803h53v-803h-53zM205 733v803h53v-803h-53z" />
<glyph unicode="&#xa7;" horiz-adv-x="921" d="M68 526q0 111 71.5 203t184.5 145q-88 63 -132.5 121t-44.5 144t45.5 159.5t123 118.5t173.5 45q115 0 201 -50t113 -124q-16 -33 -43 -53.5t-60 -20.5q-31 0 -51 15.5t-45 52.5q-6 10 -31.5 50t-56.5 60.5t-70 20.5q-82 0 -128 -56.5t-46 -139.5q0 -68 42 -119t126 -109 l160 -106q131 -88 192.5 -161t61.5 -173q0 -111 -71.5 -203t-184.5 -145q88 -64 132 -121t44 -143t-45 -160t-123 -119t-174 -45q-115 0 -201 50t-112 124q16 33 42.5 53.5t59.5 20.5q31 0 51.5 -15.5t44.5 -52.5q6 -10 32 -50t56.5 -60.5t69.5 -20.5q82 0 128 56.5 t46 140.5q0 68 -42 119t-126 108l-159 107q-131 88 -192.5 160.5t-61.5 172.5zM193 614q0 -86 52 -146t165 -140l153 -105l10 -6q156 84 156 244q0 86 -52 146.5t-165 140.5l-154 104l-10 6q-156 -84 -155 -244z" />
<glyph unicode="&#xa8;" horiz-adv-x="1228" d="M352 1231q0 41 30.5 70.5t71.5 29.5t72 -29.5t31 -70.5t-31 -71t-72 -30t-71.5 30t-30.5 71zM669 1231q0 41 31 70.5t72 29.5t71.5 -29.5t30.5 -70.5t-30.5 -71t-71.5 -30t-72 30t-31 71z" />
<glyph unicode="&#xa9;" horiz-adv-x="1642" d="M70 717q0 203 100 373t272 270t379 100q205 0 378 -100t273.5 -270t100.5 -373t-100.5 -374t-272.5 -271.5t-379 -100.5t-379 100.5t-272 271.5t-100 374zM135 717q0 -186 92 -344t250 -251t344 -93q187 0 344.5 93t249.5 250.5t92 344.5q0 186 -92 343t-249.5 250 t-344.5 93q-186 0 -344 -93t-250 -250t-92 -343zM387 707q0 137 62.5 243.5t167 165t223.5 58.5q78 0 157.5 -17.5t145.5 -48.5v-236h-29q-29 139 -100.5 200t-177.5 61q-78 0 -145.5 -47.5t-107.5 -137.5t-40 -211q0 -178 89 -289.5t240 -111.5q94 0 162 41t129 135l25 -10 q-47 -109 -137 -180.5t-226 -71.5q-125 0 -224 56t-156.5 160.5t-57.5 240.5z" />
<glyph unicode="&#xaa;" horiz-adv-x="731" d="M57 895q0 70 46.5 111t158.5 77l195 64v113q0 92 -28 135t-87 43q-45 0 -62.5 -24.5t-41.5 -98.5q-12 -37 -28.5 -50.5t-45.5 -13.5q-31 0 -53.5 14.5t-34.5 32.5q18 63 90 113.5t182 50.5q133 0 195.5 -57t62.5 -150v-401q0 -41 13.5 -59.5t48.5 -18.5q29 0 45 12v-16 q-31 -33 -68 -50t-72 -17q-55 0 -81.5 30.5t-32.5 75.5q-35 -47 -91.5 -78t-117.5 -31q-84 0 -138.5 55.5t-54.5 137.5zM199 938q0 -66 35.5 -113t103.5 -47q35 0 66.5 15.5t52.5 42.5v282l-156 -55q-59 -20 -80.5 -48t-21.5 -77z" />
<glyph unicode="&#xab;" horiz-adv-x="991" d="M123 481v6l360 385l27 -20l-248 -369l248 -368l-27 -21zM492 481v6l360 385l27 -20l-248 -369l248 -368l-27 -21z" />
<glyph unicode="&#xad;" horiz-adv-x="552" d="M41 518v115h471v-115h-471z" />
<glyph unicode="&#xae;" horiz-adv-x="872" d="M27 1053q0 109 55 201t149.5 146t204.5 54q111 0 205 -54t149.5 -146.5t55.5 -200.5q0 -109 -55.5 -202t-149.5 -147.5t-205 -54.5t-205 55.5t-149 147.5t-55 201zM80 1053q0 -96 48 -178t130 -130.5t178 -48.5t178 48.5t130.5 130t48.5 178.5q0 96 -48.5 178t-130.5 130 t-178 48t-178 -48t-130 -130t-48 -178zM250 834v12l10 2q16 4 22.5 12t6.5 27v344q0 18 -6.5 25.5t-22.5 11.5l-10 2v14h188q74 0 121 -31.5t47 -91.5q0 -88 -102 -119l82 -120q26 -37 40.5 -53.5t28.5 -20.5l9 -2v-12h-109q-4 6 -59 86l-43 65q-18 27 -32.5 38t-33.5 11 h-18v-147q0 -18 6 -26.5t22 -12.5l13 -2v-12h-160zM369 1063h57q49 0 72.5 25.5t23.5 70.5q0 94 -102 94h-51v-190z" />
<glyph unicode="&#xaf;" horiz-adv-x="1228" d="M377 1176v84h475v-84h-475z" />
<glyph unicode="&#xb0;" horiz-adv-x="536" d="M53 1305q0 86 62.5 146t152.5 60t152.5 -60t62.5 -146q0 -88 -62.5 -147.5t-152.5 -59.5t-152.5 59.5t-62.5 147.5zM111 1305q0 -68 46 -114t111 -46q66 0 112 46t46 114t-46 112.5t-112 44.5t-111.5 -45t-45.5 -112z" />
<glyph unicode="&#xb1;" d="M123 160v62h860v-62h-860zM123 721v62h397v399h66v-399h397v-62h-397v-399h-66v399h-397z" />
<glyph unicode="&#xb4;" horiz-adv-x="1228" d="M479 1073l94 299h176v-8l-243 -291h-27z" />
<glyph unicode="&#xb6;" horiz-adv-x="1095" d="M70 1036q0 127 67.5 217t176 135.5t229.5 45.5h508v-41h-150v-1598h-51v1598h-246v-1598h-53v828h-19q-127 0 -232 46t-167.5 139t-62.5 228z" />
<glyph unicode="&#xb7;" horiz-adv-x="385" d="M74 510q0 47 35.5 82t83.5 35q47 0 82.5 -35t35.5 -82t-35.5 -81.5t-82.5 -34.5q-48 0 -83.5 34.5t-35.5 81.5z" />
<glyph unicode="&#xb8;" horiz-adv-x="1228" d="M444 -373l8 11q51 -35 123 -35q51 0 78 22.5t27 63.5q0 88 -168 116l82 197h39l-45 -108q73 -13 135.5 -56t62.5 -119q0 -74 -50 -115.5t-128 -41.5q-102 0 -164 65z" />
<glyph unicode="&#xba;" horiz-adv-x="808" d="M49 1077q0 111 49 199t131 137t177 49q94 0 175 -48t130 -134t49 -197t-49 -198.5t-130 -137t-175 -49.5q-95 0 -177 48.5t-131 134.5t-49 196zM217 1108q0 -154 54.5 -267.5t142.5 -113.5q84 0 131 90t47 236q0 162 -55.5 271.5t-141.5 109.5q-84 0 -131 -90.5 t-47 -235.5z" />
<glyph unicode="&#xbb;" horiz-adv-x="991" d="M113 115l247 368l-247 369l26 20l361 -385v-6l-361 -387zM482 115l247 368l-247 369l26 20l361 -385v-6l-361 -387z" />
<glyph unicode="&#xbc;" horiz-adv-x="1251" d="M74 645v23l30 4q53 8 76 19t23 48v516q0 29 -10.5 39.5t-42.5 10.5h-76v22q70 20 121 48t108 71h37v-707q0 -35 23.5 -47t76.5 -20l31 -4v-23h-397zM133 0l948 1434h49l-948 -1434h-49zM671 176v92l351 521h86v-514h102l-20 -99h-82v-176h-129v176h-308zM716 275h263v385 z" />
<glyph unicode="&#xbd;" horiz-adv-x="1357" d="M74 645v23l30 4q53 8 76 19t23 48v516q0 29 -10.5 39.5t-42.5 10.5h-76v22q70 20 121 48t108 71h37v-707q0 -35 23.5 -47t76.5 -20l31 -4v-23h-397zM133 0l948 1434h49l-948 -1434h-49zM782 0v17l115 131q137 158 189.5 243.5t52.5 175.5q0 68 -40 104t-106 36 q-115 0 -184 -113l-17 8q29 78 92.5 140.5t165.5 62.5t162 -57.5t60 -143.5q0 -70 -41 -140.5t-102.5 -135t-170.5 -164.5l-32 -31l-27 -24h201q63 0 98 9t54.5 32.5t37.5 68.5h16l-28 -219h-496z" />
<glyph unicode="&#xbe;" horiz-adv-x="1341" d="M45 743q31 55 90 56q41 0 68 -43q39 -59 56 -78t54 -19q49 0 84 42t35 122q0 100 -68.5 157.5t-162.5 61.5v21q78 20 133 64t55 118q0 51 -35 81t-96 30q-106 0 -168 -86l-16 8q31 72 91 121t152 49q96 0 150.5 -47t54.5 -113q0 -76 -53 -123t-121 -63 q94 -21 150.5 -83.5t56.5 -146.5q0 -102 -77 -172.5t-183 -70.5q-94 0 -156.5 31.5t-93.5 82.5zM224 0l948 1434h49l-948 -1434h-49zM761 176v92l351 521h86v-514h102l-20 -99h-82v-176h-129v176h-308zM806 275h263v385z" />
<glyph unicode="&#xbf;" horiz-adv-x="745" d="M39 -135q0 84 33.5 152.5t83 120.5t127.5 122q102 90 144 149.5t48 116.5l6 54h25l6 -52q10 -72 10 -112q0 -72 -28.5 -128.5t-104.5 -133.5q-90 -98 -132 -167t-42 -163q0 -113 59.5 -191.5t155.5 -78.5q74 0 111 46t63 128q14 41 33.5 60t54.5 19q80 0 127 -57 q-18 -55 -69.5 -110.5t-134.5 -91t-189 -35.5q-123 0 -210 47t-132 127t-45 178zM381 872q0 47 36 82t83 35t82.5 -34.5t35.5 -82.5q0 -47 -35.5 -81.5t-82.5 -34.5t-83 34.5t-36 81.5z" />
<glyph unicode="&#xc0;" horiz-adv-x="1390" d="M-4 0v27l31 4q57 8 95 44t71 120l497 1253h21l495 -1253q33 -84 68 -120t90 -44l31 -4v-27h-529v27l37 4q61 6 93 26.5t32 59.5q0 25 -16 67l-111 283h-547l-108 -279q-16 -39 -17 -71q0 -41 31 -60.5t94 -25.5l37 -4v-27h-395zM371 510h514l-256 657zM475 1780v8h176 l94 -270h-26z" />
<glyph unicode="&#xc1;" horiz-adv-x="1390" d="M-4 0v27l31 4q57 8 95 44t71 120l497 1253h21l495 -1253q33 -84 68 -120t90 -44l31 -4v-27h-529v27l37 4q61 6 93 26.5t32 59.5q0 25 -16 67l-111 283h-547l-108 -279q-16 -39 -17 -71q0 -41 31 -60.5t94 -25.5l37 -4v-27h-395zM371 510h514l-256 657zM660 1518l94 270 h176v-8l-243 -262h-27z" />
<glyph unicode="&#xc2;" horiz-adv-x="1390" d="M-4 0v27l31 4q57 8 95 44t71 120l497 1253h21l495 -1253q33 -84 68 -120t90 -44l31 -4v-27h-529v27l37 4q61 6 93 26.5t32 59.5q0 25 -16 67l-111 283h-547l-108 -279q-16 -39 -17 -71q0 -41 31 -60.5t94 -25.5l37 -4v-27h-395zM371 510h514l-256 657zM440 1518l184 270 h154l184 -270h-28l-232 174l-233 -174h-29z" />
<glyph unicode="&#xc3;" horiz-adv-x="1390" d="M-4 0v27l31 4q57 8 95 44t71 120l497 1253h21l495 -1253q33 -84 68 -120t90 -44l31 -4v-27h-529v27l37 4q61 6 93 26.5t32 59.5q0 25 -16 67l-111 283h-547l-108 -279q-16 -39 -17 -71q0 -41 31 -60.5t94 -25.5l37 -4v-27h-395zM371 510h514l-256 657zM419 1542 q49 174 156 174q29 0 57.5 -9t71.5 -28q86 -39 135 -38q76 0 109 77l22 -8q-49 -174 -155 -174q-29 0 -57.5 9.5t-71.5 27.5q-86 39 -136 39q-76 0 -108 -78z" />
<glyph unicode="&#xc4;" horiz-adv-x="1390" d="M-4 0v27l31 4q57 8 95 44t71 120l497 1253h21l495 -1253q33 -84 68 -120t90 -44l31 -4v-27h-529v27l37 4q61 6 93 26.5t32 59.5q0 25 -16 67l-111 283h-547l-108 -279q-16 -39 -17 -71q0 -41 31 -60.5t94 -25.5l37 -4v-27h-395zM371 510h514l-256 657zM414 1651 q0 43 30.5 72.5t75.5 29.5t76 -29.5t31 -72.5t-31 -73t-76 -30t-75.5 30t-30.5 73zM778 1651q0 43 31 72.5t76 29.5t75.5 -29.5t30.5 -72.5t-30.5 -73t-75.5 -30t-76 30t-31 73z" />
<glyph unicode="&#xc5;" horiz-adv-x="1390" d="M-4 0v27l31 4q57 8 95 44t71 120l497 1253h21l495 -1253q33 -84 68 -120t90 -44l31 -4v-27h-529v27l37 4q61 6 93 26.5t32 59.5q0 25 -16 67l-111 283h-547l-108 -279q-16 -39 -17 -71q0 -41 31 -60.5t94 -25.5l37 -4v-27h-395zM371 510h514l-256 657zM541 1639 q0 66 47 111.5t114 45.5q68 0 115 -46t47 -111q0 -66 -47 -112t-115 -46q-67 0 -114 46t-47 112zM594 1639q0 -45 31.5 -77t76.5 -32q46 0 77.5 32t31.5 77t-31.5 76.5t-77.5 31.5q-45 0 -76.5 -31.5t-31.5 -76.5z" />
<glyph unicode="&#xc6;" horiz-adv-x="1835" d="M0 0v27l20 4q70 14 118 60t93 138l474 951q43 86 43 133q0 39 -28 59.5t-85 28.5l-43 6v27h1112v-342h-27q-23 109 -60.5 173t-106 95t-181.5 31h-278v-631h159q84 0 131.5 19.5t72 57t42.5 105.5h25v-428h-25q-18 72 -42.5 114t-73 65.5t-130.5 23.5h-159v-576 q0 -59 32.5 -78.5t100.5 -19.5h139q139 0 217 33t125 107.5t86 219.5h27l-29 -403h-1057v27l37 6q66 12 99.5 33.5t33.5 78.5v322h-452l-123 -250q-29 -61 -29 -98q0 -74 115 -88l37 -4v-27h-410zM432 510h430v874z" />
<glyph unicode="&#xc7;" horiz-adv-x="1325" d="M70 713q0 219 91 389t248.5 265t348.5 95q248 0 459 -98v-348h-31q-55 225 -165 315t-267 90q-145 0 -251 -83t-161 -233.5t-55 -346.5q0 -195 58 -350.5t173 -245.5t277 -90q147 0 255.5 69.5t198.5 227.5l29 -17q-164 -381 -533 -381q-26 0 -75 4l-35 -81 q74 -12 136.5 -55.5t62.5 -119.5q0 -74 -50.5 -115.5t-128.5 -41.5q-102 0 -163 65l8 11q51 -35 123 -35q51 0 77.5 22.5t26.5 63.5q0 88 -168 116l74 175q-164 27 -291 125t-199.5 254.5t-72.5 353.5z" />
<glyph unicode="&#xc8;" horiz-adv-x="1179" d="M45 0v27l37 6q61 12 93 33.5t32 78.5v1143q0 57 -33 83t-92 32l-37 4v27h1004v-342h-27q-23 109 -60.5 173t-106.5 95t-181 31h-279v-633h160q111 0 166 43t80 141h24v-430h-24q-27 102 -82 152.5t-164 50.5h-160v-574q0 -59 33 -78.5t100 -19.5h131q139 0 220.5 31.5 t129.5 107.5t87 221h26l-28 -403h-1049zM377 1780v8h176l94 -270h-26z" />
<glyph unicode="&#xc9;" horiz-adv-x="1179" d="M45 0v27l37 6q61 12 93 33.5t32 78.5v1143q0 57 -33 83t-92 32l-37 4v27h1004v-342h-27q-23 109 -60.5 173t-106.5 95t-181 31h-279v-633h160q111 0 166 43t80 141h24v-430h-24q-27 102 -82 152.5t-164 50.5h-160v-574q0 -59 33 -78.5t100 -19.5h131q139 0 220.5 31.5 t129.5 107.5t87 221h26l-28 -403h-1049zM561 1518l94 270h176v-8l-243 -262h-27z" />
<glyph unicode="&#xca;" horiz-adv-x="1179" d="M45 0v27l37 6q61 12 93 33.5t32 78.5v1143q0 57 -33 83t-92 32l-37 4v27h1004v-342h-27q-23 109 -60.5 173t-106.5 95t-181 31h-279v-633h160q111 0 166 43t80 141h24v-430h-24q-27 102 -82 152.5t-164 50.5h-160v-574q0 -59 33 -78.5t100 -19.5h131q139 0 220.5 31.5 t129.5 107.5t87 221h26l-28 -403h-1049zM342 1518l184 270h154l184 -270h-28l-232 174l-233 -174h-29z" />
<glyph unicode="&#xcb;" horiz-adv-x="1179" d="M45 0v27l37 6q61 12 93 33.5t32 78.5v1143q0 57 -33 83t-92 32l-37 4v27h1004v-342h-27q-23 109 -60.5 173t-106.5 95t-181 31h-279v-633h160q111 0 166 43t80 141h24v-430h-24q-27 102 -82 152.5t-164 50.5h-160v-574q0 -59 33 -78.5t100 -19.5h131q139 0 220.5 31.5 t129.5 107.5t87 221h26l-28 -403h-1049zM316 1651q0 43 30.5 72.5t75.5 29.5t76 -29.5t31 -72.5t-31 -73t-76 -30t-75.5 30t-30.5 73zM680 1651q0 43 31 72.5t76 29.5t75.5 -29.5t30.5 -72.5t-30.5 -73t-75.5 -30t-76 30t-31 73z" />
<glyph unicode="&#xcc;" horiz-adv-x="610" d="M49 0v27l37 6q61 12 93 33.5t32 78.5v1143q0 57 -33 83t-92 32l-37 4v27h512v-27l-37 -4q-59 -6 -92 -31.5t-33 -83.5v-1143q0 -57 32 -78.5t93 -33.5l37 -6v-27h-512zM78 1780v8h176l94 -270h-26z" />
<glyph unicode="&#xcd;" horiz-adv-x="610" d="M49 0v27l37 6q61 12 93 33.5t32 78.5v1143q0 57 -33 83t-92 32l-37 4v27h512v-27l-37 -4q-59 -6 -92 -31.5t-33 -83.5v-1143q0 -57 32 -78.5t93 -33.5l37 -6v-27h-512zM262 1518l94 270h176v-8l-243 -262h-27z" />
<glyph unicode="&#xce;" horiz-adv-x="610" d="M43 1518l184 270h154l184 -270h-28l-232 174l-233 -174h-29zM49 0v27l37 6q61 12 93 33.5t32 78.5v1143q0 57 -33 83t-92 32l-37 4v27h512v-27l-37 -4q-59 -6 -92 -31.5t-33 -83.5v-1143q0 -57 32 -78.5t93 -33.5l37 -6v-27h-512z" />
<glyph unicode="&#xcf;" horiz-adv-x="610" d="M17 1651q0 43 30.5 72.5t75.5 29.5t76 -29.5t31 -72.5t-31 -73t-76 -30t-75.5 30t-30.5 73zM49 0v27l37 6q61 12 93 33.5t32 78.5v1143q0 57 -33 83t-92 32l-37 4v27h512v-27l-37 -4q-59 -6 -92 -31.5t-33 -83.5v-1143q0 -57 32 -78.5t93 -33.5l37 -6v-27h-512zM381 1651 q0 43 31 72.5t76 29.5t75.5 -29.5t30.5 -72.5t-30.5 -73t-75.5 -30t-76 30t-31 73z" />
<glyph unicode="&#xd0;" horiz-adv-x="1411" d="M45 0v27l37 6q61 12 93 33.5t32 78.5v572h-152v39h152v532q0 57 -33 83t-92 32l-37 4v27h600q205 0 362.5 -86t245.5 -248t88 -379q0 -219 -88 -382t-245.5 -251t-362.5 -88h-600zM395 143q0 -100 133 -100h113q150 0 259.5 77t166.5 220t57 336q0 207 -58 368.5 t-175 254t-289 92.5h-207v-635h369v-39h-369v-574z" />
<glyph unicode="&#xd1;" horiz-adv-x="1398" d="M25 0v27l32 4q66 8 102 41.5t36 113.5v1102q0 57 -33 83t-92 32l-37 4v27h321l793 -1084v897q0 80 -36 115t-101 41l-35 4v27h393v-27l-33 -4q-66 -8 -101.5 -42t-35.5 -114v-1257h-22l-930 1272v-1076q0 -80 35.5 -114.5t101.5 -40.5l35 -4v-27h-393zM438 1542 q49 174 156 174q29 0 57.5 -9t71.5 -28q86 -39 135 -38q76 0 109 77l22 -8q-49 -174 -155 -174q-29 0 -57.5 9.5t-71.5 27.5q-86 39 -136 39q-76 0 -108 -78z" />
<glyph unicode="&#xd2;" horiz-adv-x="1499" d="M70 713q0 219 90 389t245.5 265t344.5 95q188 0 343.5 -93t246 -262t90.5 -386q0 -219 -90.5 -389t-246 -265.5t-343.5 -95.5q-189 0 -344.5 93.5t-245.5 262.5t-90 386zM287 758q0 -205 57 -375t164.5 -270.5t255.5 -100.5q131 0 233.5 84t158.5 234.5t56 345.5 q0 207 -56 377t-164.5 269t-256.5 99q-131 0 -233.5 -84t-158.5 -234.5t-56 -344.5zM522 1780v8h176l94 -270h-26z" />
<glyph unicode="&#xd3;" horiz-adv-x="1499" d="M70 713q0 219 90 389t245.5 265t344.5 95q188 0 343.5 -93t246 -262t90.5 -386q0 -219 -90.5 -389t-246 -265.5t-343.5 -95.5q-189 0 -344.5 93.5t-245.5 262.5t-90 386zM287 758q0 -205 57 -375t164.5 -270.5t255.5 -100.5q131 0 233.5 84t158.5 234.5t56 345.5 q0 207 -56 377t-164.5 269t-256.5 99q-131 0 -233.5 -84t-158.5 -234.5t-56 -344.5zM707 1518l94 270h176v-8l-243 -262h-27z" />
<glyph unicode="&#xd4;" horiz-adv-x="1499" d="M70 713q0 219 90 389t245.5 265t344.5 95q188 0 343.5 -93t246 -262t90.5 -386q0 -219 -90.5 -389t-246 -265.5t-343.5 -95.5q-189 0 -344.5 93.5t-245.5 262.5t-90 386zM287 758q0 -205 57 -375t164.5 -270.5t255.5 -100.5q131 0 233.5 84t158.5 234.5t56 345.5 q0 207 -56 377t-164.5 269t-256.5 99q-131 0 -233.5 -84t-158.5 -234.5t-56 -344.5zM487 1518l184 270h154l184 -270h-28l-232 174l-233 -174h-29z" />
<glyph unicode="&#xd5;" horiz-adv-x="1499" d="M70 713q0 219 90 389t245.5 265t344.5 95q188 0 343.5 -93t246 -262t90.5 -386q0 -219 -90.5 -389t-246 -265.5t-343.5 -95.5q-189 0 -344.5 93.5t-245.5 262.5t-90 386zM287 758q0 -205 57 -375t164.5 -270.5t255.5 -100.5q131 0 233.5 84t158.5 234.5t56 345.5 q0 207 -56 377t-164.5 269t-256.5 99q-131 0 -233.5 -84t-158.5 -234.5t-56 -344.5zM467 1542q49 174 156 174q29 0 57.5 -9t71.5 -28q86 -39 135 -38q76 0 109 77l22 -8q-49 -174 -155 -174q-29 0 -57.5 9.5t-71.5 27.5q-86 39 -136 39q-76 0 -108 -78z" />
<glyph unicode="&#xd6;" horiz-adv-x="1499" d="M70 713q0 219 90 389t245.5 265t344.5 95q188 0 343.5 -93t246 -262t90.5 -386q0 -219 -90.5 -389t-246 -265.5t-343.5 -95.5q-189 0 -344.5 93.5t-245.5 262.5t-90 386zM287 758q0 -205 57 -375t164.5 -270.5t255.5 -100.5q131 0 233.5 84t158.5 234.5t56 345.5 q0 207 -56 377t-164.5 269t-256.5 99q-131 0 -233.5 -84t-158.5 -234.5t-56 -344.5zM461 1651q0 43 30.5 72.5t75.5 29.5t76 -29.5t31 -72.5t-31 -73t-76 -30t-75.5 30t-30.5 73zM825 1651q0 43 31 72.5t76 29.5t75.5 -29.5t30.5 -72.5t-30.5 -73t-75.5 -30t-76 30t-31 73z " />
<glyph unicode="&#xd7;" d="M182 356l326 326l-324 324l45 45l324 -324l324 324l47 -47l-324 -324l324 -324l-45 -45l-324 324l-326 -326z" />
<glyph unicode="&#xd8;" horiz-adv-x="1499" d="M70 713q0 219 90 389t245.5 265t344.5 95q223 0 399 -131l106 154l39 -27l-108 -155q114 -101 179 -250.5t65 -331.5q0 -219 -90.5 -389t-246 -265.5t-343.5 -95.5q-111 0 -213.5 34t-188.5 97l-106 -153l-39 26l108 158q-113 98 -177 247.5t-64 332.5zM287 758 q0 -146 28.5 -274t83.5 -228l674 969q-61 94 -147 145t-191 51q-131 0 -233.5 -84t-158.5 -234.5t-56 -344.5zM426 211q61 -94 147 -146.5t191 -52.5q131 0 233.5 84t158.5 234.5t56 345.5q0 145 -28.5 275t-83.5 229z" />
<glyph unicode="&#xd9;" horiz-adv-x="1394" d="M33 1407v27h522v-27l-37 -4q-63 -6 -99 -31.5t-36 -83.5v-782q0 -236 107.5 -348.5t285.5 -112.5q168 0 266.5 104.5t98.5 329.5v768q0 80 -35 114t-102 42l-35 4v27h393v-27l-33 -4q-68 -8 -102.5 -42t-34.5 -114v-778q0 -227 -119 -362.5t-358 -135.5 q-268 0 -394 135.5t-126 382.5v799q0 57 -33 83t-92 32zM535 1780v8h176l94 -270h-26z" />
<glyph unicode="&#xda;" horiz-adv-x="1394" d="M33 1407v27h522v-27l-37 -4q-63 -6 -99 -31.5t-36 -83.5v-782q0 -236 107.5 -348.5t285.5 -112.5q168 0 266.5 104.5t98.5 329.5v768q0 80 -35 114t-102 42l-35 4v27h393v-27l-33 -4q-68 -8 -102.5 -42t-34.5 -114v-778q0 -227 -119 -362.5t-358 -135.5 q-268 0 -394 135.5t-126 382.5v799q0 57 -33 83t-92 32zM719 1518l94 270h176v-8l-243 -262h-27z" />
<glyph unicode="&#xdb;" horiz-adv-x="1394" d="M33 1407v27h522v-27l-37 -4q-63 -6 -99 -31.5t-36 -83.5v-782q0 -236 107.5 -348.5t285.5 -112.5q168 0 266.5 104.5t98.5 329.5v768q0 80 -35 114t-102 42l-35 4v27h393v-27l-33 -4q-68 -8 -102.5 -42t-34.5 -114v-778q0 -227 -119 -362.5t-358 -135.5 q-268 0 -394 135.5t-126 382.5v799q0 57 -33 83t-92 32zM500 1518l184 270h154l184 -270h-28l-232 174l-233 -174h-29z" />
<glyph unicode="&#xdc;" horiz-adv-x="1394" d="M33 1407v27h522v-27l-37 -4q-63 -6 -99 -31.5t-36 -83.5v-782q0 -236 107.5 -348.5t285.5 -112.5q168 0 266.5 104.5t98.5 329.5v768q0 80 -35 114t-102 42l-35 4v27h393v-27l-33 -4q-68 -8 -102.5 -42t-34.5 -114v-778q0 -227 -119 -362.5t-358 -135.5 q-268 0 -394 135.5t-126 382.5v799q0 57 -33 83t-92 32zM473 1651q0 43 30.5 72.5t75.5 29.5t76 -29.5t31 -72.5t-31 -73t-76 -30t-75.5 30t-30.5 73zM837 1651q0 43 31 72.5t76 29.5t75.5 -29.5t30.5 -72.5t-30.5 -73t-75.5 -30t-76 30t-31 73z" />
<glyph unicode="&#xdd;" horiz-adv-x="1253" d="M4 1407v27h522v-27l-37 -4q-57 -6 -86.5 -23.5t-29.5 -50.5q0 -27 22 -67l301 -549l291 538q20 39 21 68q0 72 -125 84l-35 4v27h401v-27l-22 -4q-61 -10 -107.5 -50t-89.5 -120l-301 -555v-533q0 -57 32 -78.5t93 -33.5l37 -6v-27h-512v27l37 6q61 12 93 33.5t32 78.5 v488l-344 614q-45 80 -80 114t-88 42zM614 1518l94 270h176v-8l-243 -262h-27z" />
<glyph unicode="&#xde;" horiz-adv-x="1159" d="M45 0v27l37 6q61 12 93 33.5t32 78.5v1143q0 57 -33 83t-92 32l-37 4v27h512v-27l-37 -4q-59 -6 -92 -31.5t-33 -83.5v-151h244q121 0 229.5 -45t176 -135.5t67.5 -217.5q0 -135 -62.5 -228t-168 -139t-232.5 -46h-254v-181q0 -57 32 -78.5t93 -33.5l37 -6v-27h-512z M395 367h205q172 0 242.5 87t70.5 271q0 190 -90 280.5t-235 90.5h-193v-729z" />
<glyph unicode="&#xdf;" horiz-adv-x="1144" d="M16 907v21l154 39v108q0 129 65.5 224.5t165 145.5t199.5 50q96 0 178 -34t130 -93t48 -135q0 -72 -36.5 -128t-131.5 -138q-76 -63 -103.5 -94t-27.5 -54q0 -18 27 -41.5t115 -87.5l57 -41q121 -86 183.5 -168t62.5 -178q0 -90 -47 -163.5t-126 -116.5t-171 -43 q-240 -1 -334 155q45 70 111 70q31 0 51 -20.5t47 -61.5q33 -53 63.5 -80t85.5 -27q76 0 129.5 62.5t53.5 154.5q0 76 -45.5 133.5t-143.5 129.5l-59 43q-100 74 -133 112.5t-33 79.5q0 37 23.5 72t74.5 92q76 84 117 153.5t41 159.5q0 111 -58.5 180.5t-150.5 69.5 q-106 0 -179 -91t-73 -273v-1094h-301v23l35 4q51 6 70.5 28.5t19.5 81.5v770h-154z" />
<glyph unicode="&#xe0;" horiz-adv-x="909" d="M63 238q0 96 62.5 149t216.5 105l258 83v144q0 127 -40 185.5t-126 58.5q-66 0 -92.5 -33t-56.5 -129q-14 -45 -35 -61.5t-53 -16.5q-37 0 -65 15.5t-42 39.5q14 51 59.5 101.5t120 82t170.5 31.5q172 0 253 -75.5t81 -194.5v-541q0 -55 18.5 -80.5t63.5 -25.5 q37 0 64 16v-18q-37 -43 -83 -64.5t-92 -21.5q-70 0 -103.5 42t-39.5 105q-49 -66 -126 -108.5t-159 -42.5q-109 0 -181.5 73.5t-72.5 180.5zM213 1364v8h176l94 -299h-26zM227 291q0 -86 50.5 -149.5t142.5 -63.5q55 0 102 23.5t78 62.5v375l-231 -80q-82 -29 -112 -65 t-30 -103z" />
<glyph unicode="&#xe1;" horiz-adv-x="909" d="M63 238q0 96 62.5 149t216.5 105l258 83v144q0 127 -40 185.5t-126 58.5q-66 0 -92.5 -33t-56.5 -129q-14 -45 -35 -61.5t-53 -16.5q-37 0 -65 15.5t-42 39.5q14 51 59.5 101.5t120 82t170.5 31.5q172 0 253 -75.5t81 -194.5v-541q0 -55 18.5 -80.5t63.5 -25.5 q37 0 64 16v-18q-37 -43 -83 -64.5t-92 -21.5q-70 0 -103.5 42t-39.5 105q-49 -66 -126 -108.5t-159 -42.5q-109 0 -181.5 73.5t-72.5 180.5zM227 291q0 -86 50.5 -149.5t142.5 -63.5q55 0 102 23.5t78 62.5v375l-231 -80q-82 -29 -112 -65t-30 -103zM406 1073l94 299h176 v-8l-243 -291h-27z" />
<glyph unicode="&#xe2;" horiz-adv-x="909" d="M63 238q0 96 62.5 149t216.5 105l258 83v144q0 127 -40 185.5t-126 58.5q-66 0 -92.5 -33t-56.5 -129q-14 -45 -35 -61.5t-53 -16.5q-37 0 -65 15.5t-42 39.5q14 51 59.5 101.5t120 82t170.5 31.5q172 0 253 -75.5t81 -194.5v-541q0 -55 18.5 -80.5t63.5 -25.5 q37 0 64 16v-18q-37 -43 -83 -64.5t-92 -21.5q-70 0 -103.5 42t-39.5 105q-49 -66 -126 -108.5t-159 -42.5q-109 0 -181.5 73.5t-72.5 180.5zM176 1073l182 299h168l184 -299h-28l-240 211l-238 -211h-28zM227 291q0 -86 50.5 -149.5t142.5 -63.5q55 0 102 23.5t78 62.5v375 l-231 -80q-82 -29 -112 -65t-30 -103z" />
<glyph unicode="&#xe3;" horiz-adv-x="909" d="M63 238q0 96 62.5 149t216.5 105l258 83v144q0 127 -40 185.5t-126 58.5q-66 0 -92.5 -33t-56.5 -129q-14 -45 -35 -61.5t-53 -16.5q-37 0 -65 15.5t-42 39.5q14 51 59.5 101.5t120 82t170.5 31.5q172 0 253 -75.5t81 -194.5v-541q0 -55 18.5 -80.5t63.5 -25.5 q37 0 64 16v-18q-37 -43 -83 -64.5t-92 -21.5q-70 0 -103.5 42t-39.5 105q-49 -66 -126 -108.5t-159 -42.5q-109 0 -181.5 73.5t-72.5 180.5zM168 1163q49 174 156 174q29 0 57.5 -9t71.5 -28q86 -39 135 -38q76 0 109 77l22 -8q-49 -174 -155 -174q-29 0 -57.5 9.5 t-71.5 27.5q-86 39 -136 39q-76 0 -108 -78zM227 291q0 -86 50.5 -149.5t142.5 -63.5q55 0 102 23.5t78 62.5v375l-231 -80q-82 -29 -112 -65t-30 -103z" />
<glyph unicode="&#xe4;" horiz-adv-x="909" d="M63 238q0 96 62.5 149t216.5 105l258 83v144q0 127 -40 185.5t-126 58.5q-66 0 -92.5 -33t-56.5 -129q-14 -45 -35 -61.5t-53 -16.5q-37 0 -65 15.5t-42 39.5q14 51 59.5 101.5t120 82t170.5 31.5q172 0 253 -75.5t81 -194.5v-541q0 -55 18.5 -80.5t63.5 -25.5 q37 0 64 16v-18q-37 -43 -83 -64.5t-92 -21.5q-70 0 -103.5 42t-39.5 105q-49 -66 -126 -108.5t-159 -42.5q-109 0 -181.5 73.5t-72.5 180.5zM182 1231q0 41 30.5 70.5t71.5 29.5t72 -29.5t31 -70.5t-31 -71t-72 -30t-71.5 30t-30.5 71zM227 291q0 -86 50.5 -149.5 t142.5 -63.5q55 0 102 23.5t78 62.5v375l-231 -80q-82 -29 -112 -65t-30 -103zM499 1231q0 41 31 70.5t72 29.5t71.5 -29.5t30.5 -70.5t-30.5 -71t-71.5 -30t-72 30t-31 71z" />
<glyph unicode="&#xe5;" horiz-adv-x="909" d="M63 238q0 96 62.5 149t216.5 105l258 83v144q0 127 -40 185.5t-126 58.5q-66 0 -92.5 -33t-56.5 -129q-14 -45 -35 -61.5t-53 -16.5q-37 0 -65 15.5t-42 39.5q14 51 59.5 101.5t120 82t170.5 31.5q172 0 253 -75.5t81 -194.5v-541q0 -55 18.5 -80.5t63.5 -25.5 q37 0 64 16v-18q-37 -43 -83 -64.5t-92 -21.5q-70 0 -103.5 42t-39.5 105q-49 -66 -126 -108.5t-159 -42.5q-109 0 -181.5 73.5t-72.5 180.5zM227 291q0 -86 50.5 -149.5t142.5 -63.5q55 0 102 23.5t78 62.5v375l-231 -80q-82 -29 -112 -65t-30 -103zM283 1266 q0 66 47 111.5t114 45.5q68 0 115 -46t47 -111q0 -66 -47 -112t-115 -46q-67 0 -114 46t-47 112zM336 1266q0 -45 31.5 -77t76.5 -32q46 0 77.5 32t31.5 77t-31.5 76.5t-77.5 31.5q-45 0 -76.5 -31.5t-31.5 -76.5z" />
<glyph unicode="&#xe6;" horiz-adv-x="1433" d="M63 242q0 92 66 147t219 103l262 81v142q0 121 -45 181t-129 60q-59 0 -91 -34.5t-60 -122.5q-14 -45 -35 -61.5t-53 -16.5q-35 0 -64 16.5t-45 40.5q27 86 119 150.5t242 64.5q219 0 282 -157q57 74 134 114.5t155 40.5q117 0 197.5 -52t120.5 -134t40 -174l-2 -45h-614 v-13q0 -225 95 -336.5t243 -111.5q90 0 157.5 38t124.5 124l17 -11q-61 -150 -158.5 -225.5t-216.5 -75.5q-111 0 -201 53.5t-143 149.5q-150 -195 -350 -194q-113 0 -190 74.5t-77 183.5zM231 289q0 -84 51.5 -145.5t147.5 -61.5q57 0 119.5 31.5t116.5 91.5 q-55 115 -56 256v71l-239 -79q-78 -27 -109 -62t-31 -102zM764 627h448q-6 154 -57 240.5t-147 86.5q-95 0 -163.5 -88t-80.5 -239z" />
<glyph unicode="&#xe7;" horiz-adv-x="860" d="M53 471q0 150 60.5 269.5t162 186t220.5 66.5q106 0 179 -32.5t109.5 -76.5t46.5 -81q-14 -29 -41.5 -46.5t-58.5 -17.5t-51.5 14.5t-42.5 57.5q-43 82 -76 112.5t-102 30.5q-57 0 -114.5 -42t-95.5 -130t-38 -221q0 -137 45 -234.5t122 -147.5t169 -50q98 0 164.5 42 t124.5 134l16 -10q-51 -156 -146.5 -237t-226.5 -81h-24l-35 -83q74 -12 136 -55.5t62 -119.5q0 -74 -50 -115.5t-128 -41.5q-102 0 -164 65l9 11q51 -35 123 -35q51 0 77.5 22.5t26.5 63.5q0 88 -168 116l74 177q-170 23 -267.5 156.5t-97.5 332.5z" />
<glyph unicode="&#xe8;" horiz-adv-x="876" d="M53 461q0 156 57.5 276.5t151.5 187t201 66.5q117 0 197.5 -52t120.5 -134t40 -174l-2 -45h-614v-13q0 -225 95 -336.5t243 -111.5q90 0 157.5 38t124.5 124l17 -11q-61 -150 -158.5 -225.5t-216.5 -75.5t-213 61.5t-147.5 172t-53.5 252.5zM207 627h448 q-6 154 -57 240.5t-147 86.5q-95 0 -163.5 -88t-80.5 -239zM252 1364v8h176l94 -299h-26z" />
<glyph unicode="&#xe9;" horiz-adv-x="876" d="M53 461q0 156 57.5 276.5t151.5 187t201 66.5q117 0 197.5 -52t120.5 -134t40 -174l-2 -45h-614v-13q0 -225 95 -336.5t243 -111.5q90 0 157.5 38t124.5 124l17 -11q-61 -150 -158.5 -225.5t-216.5 -75.5t-213 61.5t-147.5 172t-53.5 252.5zM207 627h448 q-6 154 -57 240.5t-147 86.5q-95 0 -163.5 -88t-80.5 -239zM444 1073l94 299h176v-8l-243 -291h-27z" />
<glyph unicode="&#xea;" horiz-adv-x="876" d="M53 461q0 156 57.5 276.5t151.5 187t201 66.5q117 0 197.5 -52t120.5 -134t40 -174l-2 -45h-614v-13q0 -225 95 -336.5t243 -111.5q90 0 157.5 38t124.5 124l17 -11q-61 -150 -158.5 -225.5t-216.5 -75.5t-213 61.5t-147.5 172t-53.5 252.5zM207 627h448 q-6 154 -57 240.5t-147 86.5q-95 0 -163.5 -88t-80.5 -239zM215 1073l182 299h168l184 -299h-28l-240 211l-238 -211h-28z" />
<glyph unicode="&#xeb;" horiz-adv-x="876" d="M53 461q0 156 57.5 276.5t151.5 187t201 66.5q117 0 197.5 -52t120.5 -134t40 -174l-2 -45h-614v-13q0 -225 95 -336.5t243 -111.5q90 0 157.5 38t124.5 124l17 -11q-61 -150 -158.5 -225.5t-216.5 -75.5t-213 61.5t-147.5 172t-53.5 252.5zM207 627h448 q-6 154 -57 240.5t-147 86.5q-95 0 -163.5 -88t-80.5 -239zM221 1231q0 41 30.5 70.5t71.5 29.5t72 -29.5t31 -70.5t-31 -71t-72 -30t-71.5 30t-30.5 71zM538 1231q0 41 31 70.5t72 29.5t71.5 -29.5t30.5 -70.5t-30.5 -71t-71.5 -30t-72 30t-31 71z" />
<glyph unicode="&#xec;" horiz-adv-x="493" d="M16 1364v8h176l94 -299h-26zM41 0v23l35 4q51 6 71.5 28.5t20.5 81.5v625q0 61 -26.5 88t-100.5 35v18l291 86h12v-852q0 -59 19.5 -81.5t70.5 -28.5l35 -4v-23h-428z" />
<glyph unicode="&#xed;" horiz-adv-x="493" d="M41 0v23l35 4q51 6 71.5 28.5t20.5 81.5v625q0 61 -26.5 88t-100.5 35v18l291 86h12v-852q0 -59 19.5 -81.5t70.5 -28.5l35 -4v-23h-428zM209 1073l94 299h176v-8l-243 -291h-27z" />
<glyph unicode="&#xee;" horiz-adv-x="493" d="M-20 1073l182 299h168l184 -299h-28l-240 211l-238 -211h-28zM41 0v23l35 4q51 6 71.5 28.5t20.5 81.5v625q0 61 -26.5 88t-100.5 35v18l291 86h12v-852q0 -59 19.5 -81.5t70.5 -28.5l35 -4v-23h-428z" />
<glyph unicode="&#xef;" horiz-adv-x="493" d="M-14 1231q0 41 30.5 70.5t71.5 29.5t72 -29.5t31 -70.5t-31 -71t-72 -30t-71.5 30t-30.5 71zM41 0v23l35 4q51 6 71.5 28.5t20.5 81.5v625q0 61 -26.5 88t-100.5 35v18l291 86h12v-852q0 -59 19.5 -81.5t70.5 -28.5l35 -4v-23h-428zM303 1231q0 41 31 70.5t72 29.5 t71.5 -29.5t30.5 -70.5t-30.5 -71t-71.5 -30t-72 30t-31 71z" />
<glyph unicode="&#xf0;" horiz-adv-x="1032" d="M53 459q0 141 60.5 253.5t164 175t222.5 62.5q72 0 139.5 -28.5t103.5 -79.5q-35 207 -143 368l-276 -100l-13 35l267 96q-113 156 -289 256l18 19q219 -78 371 -238l201 74l12 -35l-184 -68q131 -145 198.5 -332.5t67.5 -390.5q0 -178 -61.5 -302t-165 -186.5 t-228.5 -62.5q-123 0 -229.5 60.5t-171 171t-64.5 252.5zM250 502q0 -127 33.5 -239.5t98 -181.5t148.5 -69q121 0 188.5 117t67.5 303q0 135 -35.5 244.5t-99 173t-145.5 63.5q-121 0 -188.5 -113.5t-67.5 -297.5z" />
<glyph unicode="&#xf1;" horiz-adv-x="1079" d="M41 0v23l35 4q51 6 71.5 28.5t20.5 81.5v627q0 59 -26.5 86t-100.5 35v18l287 86h12v-168q47 70 132 122t185 52q141 0 209 -80.5t68 -191.5v-586q0 -59 19.5 -81.5t70.5 -28.5l35 -4v-23h-426v23l35 4q51 6 70.5 28.5t19.5 81.5v537q0 111 -49.5 168t-143.5 57 q-63 0 -120.5 -28.5t-100.5 -75.5v-658q0 -59 19.5 -81.5t70.5 -28.5l35 -4v-23h-428zM270 1163q49 174 156 174q29 0 57.5 -9t71.5 -28q86 -39 135 -38q76 0 109 77l22 -8q-49 -174 -155 -174q-29 0 -57.5 9.5t-71.5 27.5q-86 39 -136 39q-76 0 -108 -78z" />
<glyph unicode="&#xf2;" horiz-adv-x="1036" d="M53 479q0 147 64.5 264t171 182.5t229.5 65.5t229.5 -63.5t171 -178t64.5 -262.5q0 -147 -64.5 -264t-171 -182.5t-229.5 -65.5t-229.5 63.5t-171 178.5t-64.5 262zM250 522q0 -131 33.5 -248.5t98 -189.5t148.5 -72q121 0 188.5 120t67.5 312q0 143 -35.5 259t-99 183.5 t-145.5 67.5q-121 0 -188.5 -119.5t-67.5 -312.5zM287 1364v8h176l94 -299h-26z" />
<glyph unicode="&#xf3;" horiz-adv-x="1036" d="M53 479q0 147 64.5 264t171 182.5t229.5 65.5t229.5 -63.5t171 -178t64.5 -262.5q0 -147 -64.5 -264t-171 -182.5t-229.5 -65.5t-229.5 63.5t-171 178.5t-64.5 262zM250 522q0 -131 33.5 -248.5t98 -189.5t148.5 -72q121 0 188.5 120t67.5 312q0 143 -35.5 259t-99 183.5 t-145.5 67.5q-121 0 -188.5 -119.5t-67.5 -312.5zM479 1073l94 299h176v-8l-243 -291h-27z" />
<glyph unicode="&#xf4;" horiz-adv-x="1036" d="M53 479q0 147 64.5 264t171 182.5t229.5 65.5t229.5 -63.5t171 -178t64.5 -262.5q0 -147 -64.5 -264t-171 -182.5t-229.5 -65.5t-229.5 63.5t-171 178.5t-64.5 262zM250 522q0 -131 33.5 -248.5t98 -189.5t148.5 -72q121 0 188.5 120t67.5 312q0 143 -35.5 259t-99 183.5 t-145.5 67.5q-121 0 -188.5 -119.5t-67.5 -312.5zM250 1073l182 299h168l184 -299h-28l-240 211l-238 -211h-28z" />
<glyph unicode="&#xf5;" horiz-adv-x="1036" d="M53 479q0 147 64.5 264t171 182.5t229.5 65.5t229.5 -63.5t171 -178t64.5 -262.5q0 -147 -64.5 -264t-171 -182.5t-229.5 -65.5t-229.5 63.5t-171 178.5t-64.5 262zM241 1163q49 174 156 174q29 0 57.5 -9t71.5 -28q86 -39 135 -38q76 0 109 77l22 -8q-49 -174 -155 -174 q-29 0 -57.5 9.5t-71.5 27.5q-86 39 -136 39q-76 0 -108 -78zM250 522q0 -131 33.5 -248.5t98 -189.5t148.5 -72q121 0 188.5 120t67.5 312q0 143 -35.5 259t-99 183.5t-145.5 67.5q-121 0 -188.5 -119.5t-67.5 -312.5z" />
<glyph unicode="&#xf6;" horiz-adv-x="1036" d="M53 479q0 147 64.5 264t171 182.5t229.5 65.5t229.5 -63.5t171 -178t64.5 -262.5q0 -147 -64.5 -264t-171 -182.5t-229.5 -65.5t-229.5 63.5t-171 178.5t-64.5 262zM250 522q0 -131 33.5 -248.5t98 -189.5t148.5 -72q121 0 188.5 120t67.5 312q0 143 -35.5 259t-99 183.5 t-145.5 67.5q-121 0 -188.5 -119.5t-67.5 -312.5zM256 1231q0 41 30.5 70.5t71.5 29.5t72 -29.5t31 -70.5t-31 -71t-72 -30t-71.5 30t-30.5 71zM573 1231q0 41 31 70.5t72 29.5t71.5 -29.5t30.5 -70.5t-30.5 -71t-71.5 -30t-72 30t-31 71z" />
<glyph unicode="&#xf7;" d="M123 649v62h860v-62h-860zM455 391q0 39 29.5 67.5t68.5 28.5t68.5 -28.5t29.5 -67.5t-29.5 -67.5t-68.5 -28.5t-68.5 28.5t-29.5 67.5zM455 971q0 39 29.5 67.5t68.5 28.5t68.5 -28.5t29.5 -67.5t-29.5 -68t-68.5 -29t-68.5 29t-29.5 68z" />
<glyph unicode="&#xf8;" horiz-adv-x="1036" d="M53 479q0 147 64.5 264t171 182.5t229.5 65.5q150 0 270 -92l68 94l35 -24l-70 -97q76 -67 119 -166.5t43 -218.5q0 -147 -64.5 -264t-171 -182.5t-229.5 -65.5q-152 0 -272 93l-68 -95l-35 25l70 96q-76 70 -118 168t-42 217zM250 522q0 -168 53 -303l412 576 q-37 76 -91.5 117.5t-117.5 41.5q-121 0 -188.5 -119.5t-67.5 -312.5zM322 174q82 -162 208 -162q121 0 188.5 120t67.5 312q0 174 -51 306z" />
<glyph unicode="&#xf9;" horiz-adv-x="1050" d="M16 911v19l291 59h12v-686q0 -111 48.5 -172t148.5 -61q66 0 119 26.5t90 73.5q-4 74 -4 127v506q0 53 -27.5 77.5t-99.5 30.5v19l291 59h12v-778q0 -80 25.5 -114t101.5 -44v-20l-250 -47q-33 55 -45 157q-43 -68 -124 -117t-179 -49q-141 0 -212 83t-71 229v514 q0 53 -27.5 77.5t-99.5 30.5zM289 1364v8h176l94 -299h-26z" />
<glyph unicode="&#xfa;" horiz-adv-x="1050" d="M16 911v19l291 59h12v-686q0 -111 48.5 -172t148.5 -61q66 0 119 26.5t90 73.5q-4 74 -4 127v506q0 53 -27.5 77.5t-99.5 30.5v19l291 59h12v-778q0 -80 25.5 -114t101.5 -44v-20l-250 -47q-33 55 -45 157q-43 -68 -124 -117t-179 -49q-141 0 -212 83t-71 229v514 q0 53 -27.5 77.5t-99.5 30.5zM481 1073l94 299h176v-8l-243 -291h-27z" />
<glyph unicode="&#xfb;" horiz-adv-x="1050" d="M16 911v19l291 59h12v-686q0 -111 48.5 -172t148.5 -61q66 0 119 26.5t90 73.5q-4 74 -4 127v506q0 53 -27.5 77.5t-99.5 30.5v19l291 59h12v-778q0 -80 25.5 -114t101.5 -44v-20l-250 -47q-33 55 -45 157q-43 -68 -124 -117t-179 -49q-141 0 -212 83t-71 229v514 q0 53 -27.5 77.5t-99.5 30.5zM252 1073l182 299h168l184 -299h-28l-240 211l-238 -211h-28z" />
<glyph unicode="&#xfc;" horiz-adv-x="1050" d="M16 911v19l291 59h12v-686q0 -111 48.5 -172t148.5 -61q66 0 119 26.5t90 73.5q-4 74 -4 127v506q0 53 -27.5 77.5t-99.5 30.5v19l291 59h12v-778q0 -80 25.5 -114t101.5 -44v-20l-250 -47q-33 55 -45 157q-43 -68 -124 -117t-179 -49q-141 0 -212 83t-71 229v514 q0 53 -27.5 77.5t-99.5 30.5zM258 1231q0 41 30.5 70.5t71.5 29.5t72 -29.5t31 -70.5t-31 -71t-72 -30t-71.5 30t-30.5 71zM575 1231q0 41 31 70.5t72 29.5t71.5 -29.5t30.5 -70.5t-30.5 -71t-71.5 -30t-72 30t-31 71z" />
<glyph unicode="&#xfd;" horiz-adv-x="931" d="M-6 946v21h414v-21l-35 -6q-45 -8 -65.5 -26.5t-20.5 -53.5q0 -45 37 -141l198 -492l193 473q43 109 43 158q0 35 -19.5 53.5t-62.5 28.5l-31 6v21h303v-21q-61 -12 -101 -68.5t-93 -187.5l-301 -737q-59 -145 -102.5 -223t-88.5 -113t-106 -35q-84 0 -150 45 q10 55 40 90t75 35q20 0 41.5 -6t27.5 -8q37 -14 66 -14q27 0 47.5 18t44 66.5t68.5 156.5l20 51l-270 666q-61 152 -91 202t-81 62zM451 1073l94 299h176v-8l-243 -291h-27z" />
<glyph unicode="&#xfe;" horiz-adv-x="1021" d="M-6 -393l35 4q51 6 71.5 28.5t20.5 81.5v1553q0 61 -26.5 88t-100.5 35v18l291 86h12v-647q43 55 113.5 94t167.5 39q110 0 198 -58.5t138.5 -167t50.5 -251.5q0 -158 -62.5 -278.5t-176.5 -187.5t-267 -67q-84 0 -162 19v-275q0 -59 19.5 -81.5t70.5 -28.5l35 -4v-23 h-428v23zM297 61q70 -47 168 -47q153 0 231 116t78 343q0 205 -76.5 316.5t-208.5 111.5q-115 0 -192 -74v-766z" />
<glyph unicode="&#xff;" horiz-adv-x="931" d="M-6 946v21h414v-21l-35 -6q-45 -8 -65.5 -26.5t-20.5 -53.5q0 -45 37 -141l198 -492l193 473q43 109 43 158q0 35 -19.5 53.5t-62.5 28.5l-31 6v21h303v-21q-61 -12 -101 -68.5t-93 -187.5l-301 -737q-59 -145 -102.5 -223t-88.5 -113t-106 -35q-84 0 -150 45 q10 55 40 90t75 35q20 0 41.5 -6t27.5 -8q37 -14 66 -14q27 0 47.5 18t44 66.5t68.5 156.5l20 51l-270 666q-61 152 -91 202t-81 62zM227 1231q0 41 30.5 70.5t71.5 29.5t72 -29.5t31 -70.5t-31 -71t-72 -30t-71.5 30t-30.5 71zM544 1231q0 41 31 70.5t72 29.5t71.5 -29.5 t30.5 -70.5t-30.5 -71t-71.5 -30t-72 30t-31 71z" />
<glyph unicode="&#x152;" horiz-adv-x="1972" d="M70 713q0 215 90 384t245.5 262t344.5 93q90 0 180 -18h911v-342h-26q-23 109 -61 173t-106.5 95t-181.5 31h-278v-633h160q111 0 166 43t79 141h25v-428h-25q-27 100 -82 150.5t-163 50.5h-160v-574q0 -59 32.5 -78.5t100.5 -19.5h131q139 0 220 31.5t129 107.5t87 221 h27l-29 -403h-960q-86 -18 -176 -18q-188 0 -344 92t-246 259t-90 380zM287 758q0 -203 57 -371t164.5 -266t255.5 -98q133 0 235 57v1255q-109 76 -260 76q-133 0 -235.5 -83t-159.5 -231.5t-57 -338.5z" />
<glyph unicode="&#x153;" horiz-adv-x="1640" d="M53 479q0 147 64.5 264t171 182.5t229.5 65.5q117 0 217.5 -61.5t159.5 -169.5q57 106 145 168.5t187 62.5q117 0 197.5 -52t120.5 -134t40 -174l-2 -45h-614v-13q0 -225 95 -336.5t243 -111.5q90 0 157.5 38t124.5 124l17 -11q-61 -150 -158.5 -225.5t-216.5 -75.5 q-113 0 -203 58.5t-143 161.5q-61 -102 -158.5 -161t-208.5 -59q-123 0 -229.5 63.5t-171 178.5t-64.5 262zM250 522q0 -131 33.5 -248.5t98 -189.5t148.5 -72q121 0 188.5 120t67.5 312q0 143 -35.5 259t-99 183.5t-145.5 67.5q-121 0 -188.5 -119.5t-67.5 -312.5zM971 627 h448q-6 154 -57 240.5t-148 86.5q-94 0 -162.5 -88t-80.5 -239z" />
<glyph unicode="&#x178;" horiz-adv-x="1253" d="M4 1407v27h522v-27l-37 -4q-57 -6 -86.5 -23.5t-29.5 -50.5q0 -27 22 -67l301 -549l291 538q20 39 21 68q0 72 -125 84l-35 4v27h401v-27l-22 -4q-61 -10 -107.5 -50t-89.5 -120l-301 -555v-533q0 -57 32 -78.5t93 -33.5l37 -6v-27h-512v27l37 6q61 12 93 33.5t32 78.5 v488l-344 614q-45 80 -80 114t-88 42zM369 1651q0 43 30.5 72.5t75.5 29.5t76 -29.5t31 -72.5t-31 -73t-76 -30t-75.5 30t-30.5 73zM733 1651q0 43 31 72.5t76 29.5t75.5 -29.5t30.5 -72.5t-30.5 -73t-75.5 -30t-76 30t-31 73z" />
<glyph unicode="&#x2c6;" horiz-adv-x="1228" d="M348 1073l182 299h168l184 -299h-28l-240 211l-238 -211h-28z" />
<glyph unicode="&#x2dc;" horiz-adv-x="1228" d="M340 1163q49 174 156 174q29 0 57.5 -9t71.5 -28q86 -39 135 -38q76 0 109 77l22 -8q-49 -174 -155 -174q-29 0 -57.5 9.5t-71.5 27.5q-86 39 -136 39q-76 0 -108 -78z" />
<glyph unicode="&#x2000;" horiz-adv-x="898" />
<glyph unicode="&#x2001;" horiz-adv-x="1796" />
<glyph unicode="&#x2002;" horiz-adv-x="898" />
<glyph unicode="&#x2003;" horiz-adv-x="1796" />
<glyph unicode="&#x2004;" horiz-adv-x="598" />
<glyph unicode="&#x2005;" horiz-adv-x="449" />
<glyph unicode="&#x2006;" horiz-adv-x="299" />
<glyph unicode="&#x2007;" horiz-adv-x="299" />
<glyph unicode="&#x2008;" horiz-adv-x="224" />
<glyph unicode="&#x2009;" horiz-adv-x="359" />
<glyph unicode="&#x200a;" horiz-adv-x="99" />
<glyph unicode="&#x2010;" horiz-adv-x="552" d="M41 518v115h471v-115h-471z" />
<glyph unicode="&#x2011;" horiz-adv-x="552" d="M41 518v115h471v-115h-471z" />
<glyph unicode="&#x2012;" horiz-adv-x="552" d="M41 518v115h471v-115h-471z" />
<glyph unicode="&#x2013;" horiz-adv-x="1060" d="M41 545v65h979v-65h-979z" />
<glyph unicode="&#x2014;" horiz-adv-x="1880" d="M41 545v65h1798v-65h-1798z" />
<glyph unicode="&#x2018;" horiz-adv-x="317" d="M41 1176q0 98 58.5 174.5t172.5 95.5v-33q-135 -37 -135 -123q0 -29 15.5 -47t48.5 -45q35 -27 52 -48.5t17 -53.5q0 -41 -27.5 -68t-70.5 -27q-61 0 -96 48.5t-35 126.5z" />
<glyph unicode="&#x2019;" horiz-adv-x="317" d="M45 1008v32q135 37 135 123q0 29 -15 47.5t-48 44.5q-35 27 -52.5 48.5t-17.5 54.5q0 41 27.5 67.5t70.5 26.5q61 0 96 -48t35 -126q0 -98 -58 -175t-173 -95z" />
<glyph unicode="&#x201a;" horiz-adv-x="364" d="M78 -177q135 37 135 123q0 29 -15 47.5t-48 44.5q-35 27 -52.5 48.5t-17.5 54.5q0 41 27.5 67.5t70.5 26.5q61 0 96 -48t35 -126q0 -98 -58 -175t-173 -95v32z" />
<glyph unicode="&#x201c;" horiz-adv-x="622" d="M41 1176q0 98 58.5 174.5t172.5 95.5v-33q-135 -37 -135 -123q0 -29 15.5 -47t48.5 -45q35 -27 52 -48.5t17 -53.5q0 -41 -27.5 -68t-70.5 -27q-61 0 -96 48.5t-35 126.5zM346 1176q0 98 58.5 174.5t172.5 95.5v-33q-135 -37 -135 -123q0 -29 15.5 -47t48.5 -45 q35 -27 52 -48.5t17 -53.5q0 -41 -27.5 -68t-70.5 -27q-61 0 -96 48.5t-35 126.5z" />
<glyph unicode="&#x201d;" horiz-adv-x="622" d="M45 1008v32q135 37 135 123q0 29 -15 47.5t-48 44.5q-35 27 -52.5 48.5t-17.5 54.5q0 41 27.5 67.5t70.5 26.5q61 0 96 -48t35 -126q0 -98 -58 -175t-173 -95zM350 1008v32q135 37 135 123q0 29 -15 47.5t-48 44.5q-35 27 -52.5 48.5t-17.5 54.5q0 41 27.5 67.5 t70.5 26.5q61 0 96 -48t35 -126q0 -98 -58 -175t-173 -95z" />
<glyph unicode="&#x201e;" horiz-adv-x="667" d="M78 -177q135 37 135 123q0 29 -15 47.5t-48 44.5q-35 27 -52.5 48.5t-17.5 54.5q0 41 27.5 67.5t70.5 26.5q61 0 96 -48t35 -126q0 -98 -58 -175t-173 -95v32zM381 -177q135 37 135 123q0 29 -15 47.5t-48 44.5q-35 27 -52.5 48.5t-17.5 54.5q0 41 27.5 67.5t70.5 26.5 q61 0 96 -48t35 -126q0 -98 -58 -175t-173 -95v32z" />
<glyph unicode="&#x2022;" horiz-adv-x="716" d="M111 647q0 100 72.5 173t174.5 73t175 -72.5t73 -173.5q0 -102 -72.5 -175t-175.5 -73q-102 0 -174.5 73t-72.5 175z" />
<glyph unicode="&#x2026;" horiz-adv-x="1204" d="M74 100q0 47 35.5 82t83.5 35q47 0 82.5 -35t35.5 -82t-35.5 -81.5t-82.5 -34.5q-48 0 -83.5 34.5t-35.5 81.5zM484 100q0 47 35.5 82t83.5 35q47 0 82.5 -35t35.5 -82t-35.5 -81.5t-82.5 -34.5q-48 0 -83.5 34.5t-35.5 81.5zM893 100q0 47 35.5 82t83.5 35 q47 0 82.5 -35t35.5 -82t-35.5 -81.5t-82.5 -34.5q-48 0 -83.5 34.5t-35.5 81.5z" />
<glyph unicode="&#x202f;" horiz-adv-x="359" />
<glyph unicode="&#x2039;" horiz-adv-x="622" d="M123 481v6l360 385l27 -20l-248 -369l248 -368l-27 -21z" />
<glyph unicode="&#x203a;" horiz-adv-x="622" d="M113 115l247 368l-247 369l26 20l361 -385v-6l-361 -387z" />
<glyph unicode="&#x205f;" horiz-adv-x="449" />
<glyph unicode="&#x20ac;" d="M18 621v41h144v51q0 78 8 135h-152v41h156q25 172 97.5 302t180 200.5t236.5 70.5q168 0 330 -84v-309h-27q-55 354 -299 354q-135 0 -219 -143t-102 -391h456l-12 -41h-446q-2 -29 -2 -90q0 -66 2 -96h409l-12 -41h-395q18 -252 102 -400.5t238 -148.5q111 0 194.5 66.5 t155.5 217.5l29 -12q-137 -373 -435 -373q-133 0 -239.5 81t-172 228.5t-77.5 340.5h-148z" />
<glyph unicode="&#x2122;" horiz-adv-x="1644" d="M41 1243l14 191h602l15 -191h-15q-25 84 -66.5 123t-127.5 39h-47v-571q0 -27 14 -37.5t47 -18.5l17 -4l2 -16h-277l-2 16l19 4q33 8 48 18.5t15 37.5v571h-47q-88 0 -130 -39t-67 -123h-14zM748 758v16l16 2q33 4 48 20.5t15 57.5v504q0 49 -63 57l-16 2v15l73 2h117 l236 -514l229 514h196v-17l-16 -2q-63 -8 -63 -57v-524q0 -27 15 -37.5t48 -18.5l16 -4v-16h-274v16l16 4q33 8 48.5 18.5t15.5 37.5v522l-264 -598h-15l-264 585v-489q0 -41 15.5 -57.5t46.5 -20.5l18 -2v-16h-194z" />
<glyph unicode="&#x25fc;" horiz-adv-x="962" d="M0 0v963h963v-963h-963z" />
</font>
</defs>
</svg>
